Угода з потойбічним / The Assent (2019) 1080p Ukr/Eng | Sub Eng

Нові коментарі

Нова тема   Відповісти
Автор Повідомлення
killer2015 
Свій


З нами з: 30.01.15
Востаннє: 21.09.20
Повідомлень: 116

2020-07-12 21:55  
Угода з потойбічним / The Assent (2019) 1080p Ukr/Eng | Sub Eng

Угода з потойбічним / The Assent (2019) 1080p Ukr/Eng | Sub Eng


Жанр: трилер, жахи
Країна: США



Режисер: Піррі Реджинальд Тео
Актори: Роберт Казінскі Джоел , Пітер Джейсон Ламберт , Флоренс Ваніда Фейвр, Кейден Драгомер, Ханна Ворд ...

Сюжет:
Надприродні події, що відбуваються у будинку молодого батька-одинака, призводять до підозри, що його маленький син може бути одержимий злими силами. Він наважується на проведення обряду вигнання біса та запрошує священика з невдалим досвідом.


Тривалість: 01:27:46
Якість: 1080p
Відео:
кодек:
розмір кадру: 1920 х 816
бітрейт: 5995 кб/с

Аудіо №1:
мова: українська
переклад: професійний дубльований
кодек: 5.1
бітрейт: 384 кб/с
примітка: українська доріжка відсутня з 01:18:24 і до кінця фільму!

Аудіо №2:
мова: англійська
переклад: оригінал
кодек: 5.1
бітрейт: 384 кб/с

Субтитри # 1-2:
мова: англійська
тип: програмні (м'які)
формат: *.srt
Info
General
Unique ID : 8516647061503410157619341509505224233 (0x6683F1E90F0557F7A09AC00E04A8E29)
Complete name : G:\Фільми\The Assent (2019) 1080p UkrEng Sub Eng.
Format :
Format version : Version 4
File size : 4.12 GiB
Duration : 1 h 27 min
Overall bit rate : 6 724 kb/s
Movie name : .ELEKTRI4KA.UNIONGANG.
Encoded date : UTC 2020-07-12 18:42:57
Writing application : v47.0.0 ('Black Flag') 64-bit
Writing library : libebml v1.3.10 + v1.5.2

Video
ID : 1
Format : AVC
Format/Info : Advanced Video Codec
Format profile : [email protected]
Format settings : CABAC / 4 Ref Frames
Format settings, CABAC : Yes
Format settings, Reference frames : 4 frames
Codec ID : V_MPEG4/ISO/AVC
Duration : 1 h 27 min
Bit rate mode : Constant
Bit rate : 5 995 kb/s
Nominal bit rate : 10 000 kb/s
Width : 1 920 pixels
Height : 816 pixels
Display aspect ratio : 2.35:1
Frame rate mode : Constant
Frame rate : 23.976 (24000/1001) FPS
Color space : YUV
Chroma subsampling : 4:2:0
Bit depth : 8 bits
Scan type : Progressive
Bits/(Pixel*Frame) : 0.160
Stream size : 3.68 GiB (89%)
Title : .ELEKTRI4KA.UNIONGANG.
Language : English
Default : Yes
Forced : No
Color range : Limited
Color primaries : BT.709
Transfer characteristics : BT.709
Matrix coefficients : BT.709

Audio #1
ID : 2
Format : AC-3
Format/Info : Audio Coding 3
Commercial name : Dolby Digital
Codec ID : A_AC3
Duration : 1 h 18 min
Bit rate mode : Constant
Bit rate : 384 kb/s
Channel(s) : 6 channels
Channel layout : L R C LFE Ls Rs
Sampling rate : 48.0 kHz
Frame rate : 31.250 FPS (1536 SPF)
Compression mode : Lossy
Stream size : 215 MiB (5%)
Title : iTunes
Language : Ukrainian
Service kind : Complete Main
Default : Yes
Forced : Yes

Audio #2
ID : 3
Format : AC-3
Format/Info : Audio Coding 3
Commercial name : Dolby Digital
Codec ID : A_AC3
Duration : 1 h 27 min
Bit rate mode : Constant
Bit rate : 384 kb/s
Channel(s) : 6 channels
Channel layout : L R C LFE Ls Rs
Sampling rate : 48.0 kHz
Frame rate : 31.250 FPS (1536 SPF)
Compression mode : Lossy
Stream size : 241 MiB (6%)
Language : English
Service kind : Complete Main
Default : No
Forced : No

Text #1
ID : 4
Format : UTF-8
Codec ID : S_TEXT/UTF8
Codec ID/Info : UTF-8 Plain Text
Duration : 1 h 20 min
Bit rate : 52 b/s
Count of elements : 920
Stream size : 31.0 KiB (0%)
Language : English
Default : No
Forced : No

Text #2
ID : 5
Format : UTF-8
Codec ID : S_TEXT/UTF8
Codec ID/Info : UTF-8 Plain Text
Duration : 1 h 27 min
Bit rate : 50 b/s
Count of elements : 979
Stream size : 32.4 KiB (0%)
Title : SDH
Language : English
Default : No
Forced : No
Скріншоти






Джерело:


 Трекер:    Зареєстрований   

Завантажити / скачати фільм українською



відео для новачків



 Зареєстрований:   2020-07-12 21:55
 Розмір:   4.12 GB 
 Оцінка фільму:   4/10 (Голосів: 5)
   
Інші релізи
bot 
робот


З нами з: 30.09.07
Востаннє: 26.05.05
Повідомлень: 25603

2020-07-12 22:03  
Тему перенесено з Фільми до форуму Фільми в HD


igor911

igor911 
Модератор відео


З нами з: 18.01.08
Востаннє: 25.09.20
Повідомлень: 15006

2020-07-12 22:06  
Скріншоти в HD релізах мають бути у форматі png (зараз вони в jpg), треба замінити.
killer2015 
Свій


З нами з: 30.01.15
Востаннє: 21.09.20
Повідомлень: 116

2020-07-12 22:16  
Дякую, виправив)


Bohdan237 
Відео Гуртом - фільмокрай
Відео Гуртом - фільмокрай


З нами з: 13.02.12
Востаннє: 25.09.20
Повідомлень: 1167

2020-07-13 23:21  
на 01:18:24 пропадає український звук при перегляді, спробував витягнути звук з контейнера і його тривалість 01:18:24, коли сам фільм триває
killer2015 написано:
01:27:46

відповідно кінець фільму без української озвучки
в мене одного таке?

igor911 
Модератор відео


З нами з: 18.01.08
Востаннє: 25.09.20
Повідомлень: 15006

2020-07-13 23:30  
Bohdan237 написано:
в мене одного таке?

таке саме на першоджерелі (кінозал)

Додано через 2 хвилини 28 секунд:

дякую за інформацію, додав попередження в опис.

reiser44 
Поважний учасник


З нами з: 12.11.14
Востаннє: 24.09.20
Повідомлень: 167

2020-07-14 19:18  
Шлак.
padalkaandrey 
VIP


З нами з: 04.09.09
Востаннє: 25.09.20
Повідомлень: 263

2020-07-18 04:08  
Планується менший розмір. Дякую.
antik_2008 
Релізер і модератор відео


З нами з: 20.10.08
Востаннє: 25.09.20
Повідомлень: 4153

2020-09-21 11:06  
killer2015 чекати?
Ваш часовий пояс: GMT + 2 Години

Нова тема   Відповісти