Довга прогулянка Біллі Лінна в перерві футбольного матчу / Billy Lynn's Long Halftime Walk (2016) 1080p Eng | Sub Ukr/Eng

Нові коментарі

Нова тема   Відповісти
Автор Повідомлення
Anonymous 







2020-07-12 20:36  
Довга прогулянка Біллі Лінна в перерві футбольного матчу /
Billy Lynn's Long Halftime Walk (2016) 1080p Eng | Sub Ukr/Eng


Оригінальні постери:






Жанр: драма, воєнний
Країна: США, Велика Британія, Китай



Кінокомпанія: Bona Film Group, Film4, Ink Factory, Marc Platt Productions, Studio 8, TriStar Pictures, TriStar Productions
Режисер: Енг Лі / Ang Lee
Актори: Джо Елвін / Joe Alwyn, Крістен Стюарт / Kristen Stewart, Він Дізель / Vin Diesel, Ґаррет Гедлунд / Garrett Hedlund, Стів Мартін / Steve Martin, Кріс Такер / Chris Tucker, Тім Блейк Нельсон / Tim Blake Nelson, Макензі Лі / Makenzie Leigh, Бо Напп / Beau Knapp, Артуро Кастро / Arturo Castro, Мейсон Лі / Mason Lee, Астро / Astro та інші

Сюжет:
19-річний солдат Біллі Лінн пройшов пекло війни в Іраку і дивом вижив. Повернувшись додому, хлопці, які вціліли в ризикованих спецопераціях, стають національними героями і зірками розважальних промо-турів, кульмінацією яких стає шоу в перерві футбольного матчу на День подяки. Після гучних почестей бійців чекає неприємний сюрприз: їх знову відправляють на війну…
За однойменним романом Бена Фаунтейна


Тривалість: 01:52:45
Якість: 1080p

Відео:
Кодек:
Розмір кадру: 1920 x 1038
Бітрейт: 12,6 Мбіт/с

Аудіо:
Мова: англійська
Переклад: Оригінал
Кодек: 5.1
Бітрейт: 1509 Кбіт/с

Субтитри #1:
Мова: українська | Повні | iTunes | Завантажити з OpenSubtitles.org

Тип: програмні (м'які)
Формат: *.srt
переклад: Тетяна Романюк

Субтитри #2:
Мова: англійська | Повні | iTunes
Тип: програмні (м'які)
Формат: *.srt

Info


General
Unique ID : 33947179129047876804844924330391725903 (0x1989FD2751AD2DE3A66413AD67A5674F)
Format :
Format version : Version 4
File size : 11.1 GiB
Duration : 1 h 52 min
Overall bit rate : 14.2 Mb/s
Movie name : Billy Lynn's Long Halftime Walk (2016) 1080p [Eng][SubUkrEng] [Hurtom]
Encoded date : UTC 2020-07-12 17:44:46
Writing application : v46.0.0 ('No Deeper Escape') 64-bit
Writing library : libebml v1.3.10 + v1.5.2
Attachments : poster_ukr.jpg / poster_eng1.jpg / poster_eng2.jpg

Video
ID : 1
Format : AVC
Format/Info : Advanced Video Codec
Format profile : [email protected]
Format settings : CABAC / 4 Ref Frames
Format settings, CABAC : Yes
Format settings, Reference fra : 4 frames
Codec ID : V_MPEG4/ISO/AVC
Duration : 1 h 52 min
Bit rate : 12.6 Mb/s
Width : 1 920 pixels
Height : 1 038 pixels
Display aspect ratio : 1.85:1
Frame rate mode : Constant
Frame rate : 23.976 (24000/1001) FPS
Color space : YUV
Chroma subsampling : 4:2:0
Bit depth : 8 bits
Scan type : Progressive
Bits/(Pixel*Frame) : 0.265
Stream size : 9.96 GiB (89%)
Title : Billy Lynn's Long Halftime Walk (2016) 1080p
Writing library : core 148 r2665 a01e339
Encoding settings : cabac=1 / ref=4 / deblock=1:-3:-3 / analyse=0x3:0x133 / me=umh / subme=10 / psy=1 / psy_rd=1.05:0.00 / mixed_ref=1 / me_range=32 / chroma_me=1 / trellis=2 / 8x8dct=1 / cqm=0 / deadzone=21,11 / fast_pskip=1 / chroma_qp_offset=-2 / threads=12 / lookahead_threads=2 / sliced_threads=0 / nr=0 / decimate=1 / interlaced=0 / bluray_compat=0 / constrained_intra=0 / bframes=9 / b_pyramid=2 / b_adapt=2 / b_bias=0 / direct=3 / weightb=1 / open_gop=0 / weightp=2 / keyint=250 / keyint_min=23 / scenecut=40 / intra_refresh=0 / rc=crf / mbtree=0 / crf=17.5 / qcomp=0.65 / qpmin=0 / qpmax=69 / qpstep=4 / ip_ratio=1.40 / pb_ratio=1.30 / aq=3:0.90
Language : English
Default : Yes
Forced : No
Color range : Limited
Matrix coefficients : BT.709

Audio
ID : 2
Format :
Format/Info : Digital Theater Systems
Codec ID : A_DTS
Duration : 1 h 52 min
Bit rate mode : Constant
Bit rate : 1 509 kb/s
Channel(s) : 6 channels
Channel layout : C L R Ls Rs LFE
Sampling rate : 48.0 kHz
Frame rate : 93.750 FPS (512 SPF)
Bit depth : 16 bits
Compression mode : Lossy
Stream size : 1.19 GiB (11%)
Title : 5.1 @ 1536 kbps
Language : English
Default : Yes
Forced : No

Text #1
ID : 3
Format : UTF-8
Codec ID : S_TEXT/UTF8
Codec ID/Info : UTF-8 Plain Text
Duration : 1 h 50 min
Bit rate : 123 b/s
Count of elements : 1928
Stream size : 100 KiB (0%)
Title : Повні [iTunes]
Language : Ukrainian
Default : Yes
Forced : No

Text #2
ID : 4
Format : UTF-8
Codec ID : S_TEXT/UTF8
Codec ID/Info : UTF-8 Plain Text
Duration : 1 h 45 min
Bit rate : 88 b/s
Count of elements : 1908
Stream size : 68.5 KiB (0%)
Title : Повні [iTunes]
Language : English
Default : No
Forced : No

Menu
00:00:00.000 : en:Chapter 1
00:06:05.865 : en:Chapter 2
00:13:21.884 : en:Chapter 3
00:20:11.293 : en:Chapter 4
00:26:24.541 : en:Chapter 5
00:31:10.410 : en:Chapter 6
00:39:05.426 : en:Chapter 7
00:48:51.929 : en:Chapter 8
00:55:58.605 : en:Chapter 9
01:04:18.354 : en:Chapter 10
01:10:16.712 : en:Chapter 11
01:17:14.630 : en:Chapter 12
01:22:08.507 : en:Chapter 13
01:29:13.265 : en:Chapter 14
01:35:21.591 : en:Chapter 15
01:42:52.458 : en:Chapter 16
Скріншоти







Джерело:


 Трекер:    Зареєстрований   

Завантажити / скачати фільм українською



відео для новачків



 Зареєстрований:   2020-07-12 20:36
 Розмір:   11.15 GB 
 Оцінка фільму:   5.5/10 (Голосів: 2)
   
antik_2008 
Релізер і модератор відео


З нами з: 20.10.08
Востаннє: 01.12.20
Повідомлень: 4385

2020-11-07 21:15  
Не поганий фільм.
Ваш часовий пояс: GMT + 2 Години

Нова тема   Відповісти