Формула 1. Сезон 2020. Етап 2. Гран-Прі Штирії. Гонка (12.07.2020) HDTV 1080i 2хUkr/Pol

Нові коментарі

Нова тема   Відповісти
Автор Повідомлення
sergiyko.5 
VIP


З нами з: 25.02.16
Востаннє: 29.10.20
Повідомлень: 3647

2020-07-12 17:37  
Формула 1. Сезон 2020. Етап 2. Гран-Прі Штирії. Гонка (12.07.2020) HDTV 1080i 2хUkr/Pol


Формула 1. Сезон 2020. Етап 2. Гран-Прі Штирії. Гонка (12.07.2020) HDTV 1080i 2хUkr/Pol

Жанр: Перегони Формули 1
Країна: Австрія
Телеканал: Eleven Sports 1 HD
Коментар: Максим Подзігун (1), Роман Гончаров (2), польська (3)

Опис:
Гонка другого етапу Гран-Прі Штирії 2020 року.


Якість: HDTV

Відео:кодек: розмір кадру: 1920 х 1080 бітрейт: 6800 кб/с
Аудіо 1: мова: українська кодек: 2.0 бітрейт: 192 кб/с
Аудіо 2: мова: українська кодек: 2.0 бітрейт: 192 кб/с
Аудіо 3: мова: польська кодек: 2.0 бітрейт: 160 кб/с
Тривалість:
01:50:01
Про файл:
General
Unique ID : 198131536659180375965363027224139981651 (0x950EBEF5C9E57B5A4EEAEE37C6FCE353)
Complete name : C:\Users\Sergij\Documents\qBittorrentPortable\F1.2020.02.Styria.Race.1080i.HDTV.Ukr.Pol.
Format :
Format version : Version 4
File size : 5.64 GiB
Duration : 1 h 50 min
Overall bit rate : 7 338 kb/s
Movie name : rip by sergiyko
Encoded date : UTC 2020-07-12 15:51:53
Writing application : v47.0.0 ('Black Flag') 64-bit
Writing library : libebml v1.3.10 + v1.5.2

Video
ID : 1
Format : AVC
Format/Info : Advanced Video Codec
Format profile : [email protected]
Format settings : CABAC / 4 Ref Frames
Format settings, CABAC : Yes
Format settings, Reference : 4 frames
Codec ID : V_MPEG4/ISO/AVC
Duration : 1 h 50 min
Bit rate : 6 792 kb/s
Width : 1 920 pixels
Height : 1 080 pixels
Display aspect ratio : 16:9
Frame rate mode : Constant
Frame rate : 25.000 FPS
Standard : Component
Color space : YUV
Chroma subsampling : 4:2:0
Bit depth : 8 bits
Scan type : Interlaced
Scan type, store method : Separated fields
Scan order : Top Field First
Bits/(Pixel*Frame) : 0.131
Stream size : 5.22 GiB (93%)
Language : English
Default : Yes
Forced : No
Color range : Limited
Color primaries : BT.709
Transfer characteristics : BT.709
Matrix coefficients : BT.709

Audio #1
ID : 2
Format : AC-3
Format/Info : Audio Coding 3
Commercial name : Dolby Digital
Codec ID : A_AC3
Duration : 1 h 50 min
Bit rate mode : Constant
Bit rate : 192 kb/s
Channel(s) : 2 channels
Channel layout : L R
Sampling rate : 48.0 kHz
Frame rate : 31.250 FPS (1536 SPF)
Compression mode : Lossy
Stream size : 151 MiB (3%)
Title : Максим Подзігун
Language : Ukrainian
Service kind : Complete Main
Default : Yes
Forced : Yes

Audio #2
ID : 3
Format : AC-3
Format/Info : Audio Coding 3
Commercial name : Dolby Digital
Codec ID : A_AC3
Duration : 1 h 50 min
Bit rate mode : Constant
Bit rate : 192 kb/s
Channel(s) : 2 channels
Channel layout : L R
Sampling rate : 48.0 kHz
Frame rate : 31.250 FPS (1536 SPF)
Compression mode : Lossy
Stream size : 151 MiB (3%)
Title : Роман Гончаров
Language : Ukrainian
Service kind : Complete Main
Default : No
Forced : No

Audio #3
ID : 4
Format : AC-3
Format/Info : Audio Coding 3
Commercial name : Dolby Digital
Codec ID : A_AC3
Duration : 1 h 50 min
Bit rate mode : Constant
Bit rate : 160 kb/s
Channel(s) : 2 channels
Channel layout : L R
Sampling rate : 48.0 kHz
Frame rate : 31.250 FPS (1536 SPF)
Compression mode : Lossy
Stream size : 126 MiB (2%)
Language : Polish
Service kind : Complete Main
Default : No
Forced : No
Скріншоти:


Запис/зведення: sergiyko



Срібний реліз (на рейтинг впливає 50% завантаженого)
 Трекер:    Зареєстрований   

Завантажити / скачати торрент



відео для новачків



 Зареєстрований:   2020-07-12 17:54
 Розмір:   5.64 GB 
 Оцінка:   10/10 (Голосів: 27)
   
petenko_rb 
Новенький


З нами з: 17.10.12
Востаннє: 14.10.20
Повідомлень: 4

2020-07-12 17:58  
Роздайте!
VicCob 
Свій


З нами з: 16.06.10
Востаннє: 25.10.20
Повідомлень: 58

2020-07-12 20:19  
дякую
anton1337 
Новенький


З нами з: 07.03.18
Востаннє: 25.10.20
Повідомлень: 1

2020-07-12 20:48  
Дякую!
kopcap_zp 
Новенький


З нами з: 18.03.13
Востаннє: 24.10.20
Повідомлень: 1

2020-07-12 22:06  
а де можна дивитися онлайн трансляцію з коментарем Макса?

на f1org там Роман, а мені його коментар не дуже подобаєься, дуже багато пауз.

Dr.WiT 
Новенький


З нами з: 08.05.11
Востаннє: 24.10.20
Повідомлень: 23

2020-07-12 22:12  
kopcap_zp написано:
а де можна дивитися онлайн трансляцію з коментарем Макса?


Підслухаю. Також цікавить дане питання.

Dron1994 
Частий відвідувач


З нами з: 07.07.14
Востаннє: 27.10.20
Повідомлень: 34

2020-07-12 22:21  
kopcap_zp написано:
а де можна дивитися онлайн трансляцію з коментарем Макса?

Тільки на Patreon`і на платній основі, наскільки я знаю.

Ne_stosian 
Новенький


З нами з: 05.07.20
Востаннє: 10.10.20
Повідомлень: 1

2020-07-12 22:26  
Дуже вдячний!
extrom 
Новенький


З нами з: 21.02.16
Востаннє: 25.10.20
Повідомлень: 13

2020-07-12 23:43  
Походу червоний колір цього сезону це клоунський
Ваш часовий пояс: GMT + 2 Години

Нова тема   Відповісти