Містер Лінк: загублена ланка еволюції / Missing Link (2019) 720p Ukr/Eng

Нові коментарі

Нова тема   Відповісти
Автор Повідомлення
Anonymous 







2020-07-12 13:12  
Містер Лінк: загублена ланка еволюції / Missing Link (2019) 720p Ukr/Eng


Жанр: анімація, фентезі, пригоди, сімейний, комедія
Країна: США, Канада



Студія: Laika Entertainment
Режисер: Кріс Батлер
Ролі озвучували: Гью Джекман, Зої Салдана, Тімоті Оліфант, Емма Томпсон, Метт Лукас, Стівен Фрай, Зак Галіфіанакіс, Адам Годлі та інші

Сюжет:
Безстрашний натураліст і винахідник Лайонел Фрост поставив перед собою задачу розповісти світу про існування різних створінь, про яких говорять лише у легендах. Його новим відкриттям стає Лінк, так звана «відсутня ланка», яка поєднує людство з його предками по еволюційній драбині.

Тривалість: 01:34:26
Якість: 720p

Відео:
кодек:
розмір кадру: 1280 х 534
бітрейт: ~3867 кб/с

Аудіо # 1:
мова: українська
переклад: професійний дубльований | Pie Post Production
кодек: 2.0
бітрейт: 192 кб/с

Аудіо # 2:
мова: англійська
переклад: оригінал
кодек: 5.1
бітрейт: 640 кб/с

Трансляція:
Info, Internal ріп від SbR
General
Unique ID : 294014443541351595852914066397888269307 (0xDD311F414804C8D20C3BB12810F04BFB)
Complete name : F:\Missing.Link.2019..720p.Ukr.Eng.
Format :
Format version : Version 4 / Version 2
File size : 3.10 GiB
Duration : 1 h 34 min
Overall bit rate : 4 701 kb/s
Encoded date : UTC 2020-07-12 10:55:39
Writing application : v31.0.0 ('Dolores In A Shoestand') 64-bit
Writing library : libebml v1.3.6 + v1.4.9

Video
ID : 1
Format : AVC
Format/Info : Advanced Video Codec
Format profile : [email protected]
Format settings : CABAC / 12 Ref Frames
Format settings, CABAC : Yes
Format settings, ReFrames : 12 frames
Codec ID : V_MPEG4/ISO/AVC
Duration : 1 h 34 min
Bit rate : 3 867 kb/s
Width : 1 280 pixels
Height : 534 pixels
Display aspect ratio : 2.40:1
Frame rate mode : Constant
Frame rate : 23.976 (24000/1001) FPS
Color space : YUV
Chroma subsampling : 4:2:0
Bit depth : 8 bits
Scan type : Progressive
Bits/(Pixel*Frame) : 0.236
Stream size : 2.55 GiB (82%)
Title : SbR
Writing library : core 157 r2970+3 3e1d832 master [[email protected] X86_64]
Encoding settings : cabac=1 / ref=12 / deblock=1:-3:-3 / analyse=0x3:0x133 / me=umh / subme=11 / psy=1 / fade_compensate=0.00 / psy_rd=1.00:0.00 / mixed_ref=1 / me_range=32 / chroma_me=1 / trellis=2 / 8x8dct=1 / cqm=0 / deadzone=21,11 / fast_pskip=0 / chroma_qp_offset=-2 / threads=6 / lookahead_threads=1 / sliced_threads=0 / nr=0 / decimate=1 / interlaced=0 / bluray_compat=0 / constrained_intra=0 / fgo=0 / bframes=11 / b_pyramid=2 / b_adapt=2 / b_bias=0 / direct=3 / weightb=1 / open_gop=0 / weightp=2 / keyint=250 / keyint_min=23 / scenecut=40 / intra_refresh=0 / rc=crf / mbtree=0 / crf=17.0000 / qcomp=0.65 / qpmin=0:0:0 / qpmax=69:69:69 / qpstep=4 / ip_ratio=1.30 / pb_ratio=1.20 / aq=1:0.70 / aq-sensitivity=10.00 / aq-factor=1.00:1.00:1.00 / aq2=0 / aq3=0 / zones=592,811,crf=14.5/1130,7646,crf=14.5/20263,20700,crf=12.5/21265,21451,crf=12.5/49794,55230,crf=12.5/67579,76631,crf=12.5/91942,92732,crf=12.5
Language : English
Default : Yes
Forced : No
Color range : Limited
Matrix coefficients : BT.709

Audio #1
ID : 2
Format : AC-3
Format/Info : Audio Coding 3
Commercial name : Dolby Digital
Codec ID : A_AC3
Duration : 1 h 34 min
Bit rate mode : Constant
Bit rate : 192 kb/s
Channel(s) : 2 channels
Channel positions : Front: L R
Sampling rate : 48.0 kHz
Frame rate : 31.250 FPS (1536 SPF)
Bit depth : 16 bits
Compression mode : Lossy
Stream size : 130 MiB (4%)
Title : Ukrainian Dub [UFD]
Language : Ukrainian
Service kind : Complete Main
Default : Yes
Forced : No

Audio #2
ID : 3
Format : AC-3
Format/Info : Audio Coding 3
Commercial name : Dolby Digital
Codec ID : A_AC3
Duration : 1 h 34 min
Bit rate mode : Constant
Bit rate : 640 kb/s
Channel(s) : 6 channels
Channel positions : Front: L C R, Side: L R, LFE
Sampling rate : 48.0 kHz
Frame rate : 31.250 FPS (1536 SPF)
Bit depth : 16 bits
Compression mode : Lossy
Stream size : 432 MiB (14%)
Language : English
Service kind : Complete Main
Default : No
Forced : No

Text
ID : 4
Format : UTF-8
Codec ID : S_TEXT/UTF8
Codec ID/Info : UTF-8 Plain Text
Duration : 2 min 21 s
Bit rate : 62 b/s
Count of elements : 24
Stream size : 1.08 KiB (0%)
Title : Forced
Language : Ukrainian
Default : Yes
Forced : Yes

Menu
00:00:00.000 : en:Chapter 01
00:05:12.521 : en:Chapter 02
00:08:53.616 : en:Chapter 03
00:12:29.207 : en:Chapter 04
00:15:35.852 : en:Chapter 05
00:20:18.551 : en:Chapter 06
00:24:26.840 : en:Chapter 07
00:29:55.127 : en:Chapter 08
00:33:14.659 : en:Chapter 09
00:36:40.949 : en:Chapter 10
00:40:33.389 : en:Chapter 11
00:43:45.164 : en:Chapter 12
00:47:24.300 : en:Chapter 13
00:52:50.876 : en:Chapter 14
00:55:14.478 : en:Chapter 15
00:58:51.903 : en:Chapter 16
00:59:59.721 : en:Chapter 17
01:02:54.729 : en:Chapter 18
01:05:15.495 : en:Chapter 19
01:08:17.176 : en:Chapter 20
01:11:00.339 : en:Chapter 21
01:13:20.438 : en:Chapter 22
01:21:51.198 : en:Chapter 23
01:24:48.625 : en:Chapter 24
Скріншоти:

Джерело:
Особиста оцінка: 9 - нам з дружиною дуже сподобалось, мультфільм для будь-якого віку


 Трекер:    Зареєстрований   

Завантажити / скачати мультфільм українською



відео для новачків



 Зареєстрований:   2020-07-18 12:36
 Розмір:   3.1 GB 
 Оцінка мультфільму:   9.9/10 (Голосів: 20)
   
Anonymous 







2020-07-18 12:37  
У повторі показано повну версію. Тож, як і обіцяно, оновлено.
hudda 
Свій


З нами з: 07.06.09
Востаннє: 27.02.21
Повідомлень: 92

2020-07-19 02:20  
PuMa.ua
Дякую вам за оновлення.

volee 
Свій


З нами з: 19.02.09
Востаннє: 18.02.21
Повідомлень: 60

2020-07-19 23:28  
шедевр
yaroslaigor 
Свій


З нами з: 10.08.09
Востаннє: 27.02.21
Повідомлень: 99

2020-07-27 20:11  
У субтитрах на неозвучений фрагмент треба замінити "лодка" на "човен" Wink (1)
Ваш часовий пояс: GMT + 2 Години

Нова тема   Відповісти