Містер Лінк. Загублена ланка еволюції / Missing Link (2019) 1080p Ukr/Eng | Sub Eng

Нові коментарі

Нова тема   Відповісти
Автор Повідомлення
sergiyko.5 
Забанено
Забанено


З нами з: 25.02.16
Востаннє: 29.10.20
Повідомлень: 3648

2020-07-12 12:43  
Містер Лінк. Загублена ланка еволюції / Missing Link (2019) 1080p Ukr/Eng | Sub Eng


Містер Лінк. Загублена ланка еволюції / Missing Link (2019) 1080p Ukr/Eng | Sub Eng

Жанр: анімація, комедія, пригоди, сімейний, фентезі
Країна: США, Канада
Кінокомпанія: Laika Entertainment, Digital One See
Режисер: Кріс Батлер
Атори: Зої Салдана, Г'ю Джекман, Зак Ґаліфіанакіс, Тімоті Оліфант, Емма Томпсон, Стівен Фрай

Сюжет:
Багато років його намагалися знайти найдосвідченіші дослідники. Саме його не вистачає як відсутньої ланки еволюції. Знахідка так і була би неможливою, якби він сам не вийшов на контакт із натуралістом і дослідником Лайонелом Фростом. Містер Лінк, а саме так його звати, ховається серед джунглів, де його ніколи би не знайшли. Він розумний, вміє говорити і, звичайно ж, думати. І він дуже сумує за своїм родичам в Гімалаях. Містер Лінк просить Лайонела Фроста допомогти йому дістатися в потрібну локацію, щоб зустріти родичів. Це буде легендарна подорож, під час якого весь світ дізнається про існування цього гіганта.




Тривалість: 01:34:25
Якість:

Відео: кодек: Н.264 розмір кадру: 1920 x 800 бітрейт: 13200 кб/с
Аудіо 1: мова: українська переклад: професійний дубльований кодек: 2.0 бітрейт: 192 кб/с
Озвучення: Pie Post Production Трансляція:
Аудіо 2: мова: англійська переклад: оригінал кодек: 5.1 бітрейт: 1509 кб/с
Субтитри: (Forced, SDH) мова: англійська тип: програмні (м'які) формат: *.srt
Про файл:
General
Unique ID : 110119915590711486185960821493527408963 (0x52D85304BB646DF5FFCA2EA8F846F143)
Complete name : D:\Documents\Torrents\Missing.Link.2019.1080p..Ukr.Eng.
Format :
Format version : Version 4
File size : 9.81 GiB
Duration : 1 h 34 min
Overall bit rate : 14.9 Mb/s
Movie name : Missing Link 2019 by sergiyko
Encoded date : UTC 2020-07-19 07:41:56
Writing application : v47.0.0 ('Black Flag') 64-bit
Writing library : libebml v1.3.10 + v1.5.2
Cover : Yes
Attachments : cover.jpeg

Video
ID : 1
Format : AVC
Format/Info : Advanced Video Codec
Format profile : [email protected]
Format settings : CABAC / 5 Ref Frames
Format settings, CABAC : Yes
Format settings, Reference : 5 frames
Codec ID : V_MPEG4/ISO/AVC
Duration : 1 h 34 min
Bit rate : 13.2 Mb/s
Width : 1 920 pixels
Height : 800 pixels
Display aspect ratio : 2.40:1
Frame rate mode : Constant
Frame rate : 23.976 (24000/1001) FPS
Color space : YUV
Chroma subsampling : 4:2:0
Bit depth : 8 bits
Scan type : Progressive
Bits/(Pixel*Frame) : 0.358
Stream size : 8.69 GiB (89%)
Title : Missing Link 2019
Writing library : core 159 r2991 1771b55
Encoding settings : cabac=1 / ref=5 / deblock=1:-3:-3 / analyse=0x3:0x133 / me=umh / subme=11 / psy=1 / psy_rd=1.00:0.05 / mixed_ref=1 / me_range=48 / chroma_me=1 / trellis=2 / 8x8dct=1 / cqm=0 / deadzone=21,11 / fast_pskip=0 / chroma_qp_offset=-3 / threads=12 / lookahead_threads=3 / sliced_threads=0 / nr=0 / decimate=1 / interlaced=0 / bluray_compat=0 / constrained_intra=0 / bframes=10 / b_pyramid=2 / b_adapt=2 / b_bias=0 / direct=3 / weightb=1 / open_gop=0 / weightp=2 / keyint=250 / keyint_min=23 / scenecut=40 / intra_refresh=0 / rc_lookahead=60 / rc=crf / mbtree=0 / crf=15.4 / qcomp=0.60 / qpmin=0 / qpmax=69 / qpstep=4 / vbv_maxrate=50000 / vbv_bufsize=62500 / crf_max=0.0 / nal_hrd=none / filler=0 / ip_ratio=1.40 / pb_ratio=1.30 / aq=3:0.90
Language : English
Default : Yes
Forced : No

Audio #1
ID : 2
Format : AC-3
Format/Info : Audio Coding 3
Commercial name : Dolby Digital
Codec ID : A_AC3
Duration : 1 h 34 min
Bit rate mode : Constant
Bit rate : 192 kb/s
Channel(s) : 2 channels
Channel layout : L R
Sampling rate : 48.0 kHz
Frame rate : 31.250 FPS (1536 SPF)
Compression mode : Lossy
Stream size : 130 MiB (1%)
Title : DUB | Новий канал
Language : Ukrainian
Service kind : Complete Main
Default : Yes
Forced : Yes

Audio #2
ID : 3
Format :
Format/Info : Digital Theater Systems
Codec ID : A_DTS
Duration : 1 h 34 min
Bit rate mode : Constant
Bit rate : 1 509 kb/s
Channel(s) : 6 channels
Channel layout : C L R Ls Rs LFE
Sampling rate : 48.0 kHz
Frame rate : 93.750 FPS (512 SPF)
Bit depth : 24 bits
Compression mode : Lossy
Stream size : 1 019 MiB (10%)
Title : Original
Language : English
Default : No
Forced : No

Text #1
ID : 4
Format : UTF-8
Codec ID : S_TEXT/UTF8
Codec ID/Info : UTF-8 Plain Text
Duration : 8 s 49 ms
Bit rate : 140 b/s
Count of elements : 5
Stream size : 141 Bytes (0%)
Title : Forced
Language : English
Default : No
Forced : No

Text #2
ID : 5
Format : UTF-8
Codec ID : S_TEXT/UTF8
Codec ID/Info : UTF-8 Plain Text
Duration : 1 h 34 min
Bit rate : 65 b/s
Count of elements : 1615
Stream size : 45.2 KiB (0%)
Title : SDH
Language : English
Default : No
Forced : No

Menu
00:00:00.000 : en:Chapter 01
00:05:12.520 : en:Chapter 02
00:08:53.616 : en:Chapter 03
00:12:29.206 : en:Chapter 04
00:15:35.851 : en:Chapter 05
00:20:18.550 : en:Chapter 06
00:24:26.840 : en:Chapter 07
00:29:55.126 : en:Chapter 08
00:33:14.659 : en:Chapter 09
00:36:40.948 : en:Chapter 10
00:40:33.389 : en:Chapter 11
00:43:45.164 : en:Chapter 12
00:47:24.299 : en:Chapter 13
00:52:50.876 : en:Chapter 14
00:55:14.477 : en:Chapter 15
00:58:51.903 : en:Chapter 16
00:59:59.721 : en:Chapter 17
01:02:54.729 : en:Chapter 18
01:05:15.494 : en:Chapter 19
01:08:17.176 : en:Chapter 20
01:11:00.339 : en:Chapter 21
01:13:20.437 : en:Chapter 22
01:21:51.197 : en:Chapter 23
01:24:48.625 : en:Chapter 24
Скріншоти:


Запис/зведення: sergiyko


 Трекер:    Зареєстрований   

Завантажити / скачати мультфільм українською



відео для новачків



 Зареєстрований:   2020-07-19 09:49
 Розмір:   9.81 GB 
 Оцінка мультфільму:   9.7/10 (Голосів: 21)
   
bot 
робот


З нами з: 30.09.07
Востаннє: 26.05.05
Повідомлень: 27340

2020-07-12 12:43  
Тему перенесено з Мультфільми в HD до форуму Анонси релізів


sergiyko.5

bot 
робот


З нами з: 30.09.07
Востаннє: 26.05.05
Повідомлень: 27340

2020-07-12 14:09  
Тему перенесено з Анонси релізів до форуму Мультфільми в HD


sergiyko.5

VioletWolf 
Свій


З нами з: 23.02.15
Востаннє: 07.03.21
Повідомлень: 52

2020-07-12 16:19  
Дуже гарний мульт!
sergiyko.5 
Забанено
Забанено


З нами з: 25.02.16
Востаннє: 29.10.20
Повідомлень: 3648

2020-07-19 09:50  
Торент оновлено. Змінено звукову доріжку на повну версію.
Ваш часовий пояс: GMT + 2 Години

Нова тема   Відповісти