Грейхаунд: Битва за Атлантику / Greyhound (2020) 720p Ukr/Eng | Sub Ukr/Eng

Нові коментарі

Нова тема   Відповісти
Автор Повідомлення
Anonymous 







2020-07-12 09:35  
Грейхаунд: Битва за Атлантику / Greyhound (2020) 720p Ukr/Eng | Sub Ukr/Eng

Грейхаунд: Битва за Атлантику / Greyhound (2020) 720p Ukr/Eng | Sub Ukr/Eng
Альтернативний та оригінальний постери:



Грейхаунд: Битва за Атлантику / Greyhound (2020) 720p Ukr/Eng | Sub Ukr/Eng

Жанр: екшн, драма, історичний, воєнний, військовий
Країна: США, Канада, Китай



Кінокомпанія: Columbia Pictures, Stage 6 Films, Zhengfu Pictures, BRON Studios, Creative Artists Agency, Creative Wealth Media Finance, FilmNation Entertainment, Playtone, Sycamore Pictures
Режисер: Аарон Шнайдер / Aaron Schneider
Актори: Том Генкс / Tom Hanks, Елізабет Шу / Elisabeth Shue, Стівен Грем / Stephen Graham, Карл Глусман / Karl Glusman, Мануель Рульфо / Manuel Garcia-Rulfo, Том Бріттні / Tom Brittney, Девін Друїд / Devin Druid, Роб Морґан / Rob Morgan, Девід Мальдонадо / David Maldonado, Адам Алдекс / Adam Aalderks, Майкл Бенц / Michael Benz та інші.

Сюжет:
Том Генкс у видовищній історичній екшн-драмі, історії справжньої відваги і сили духу! У розпал Другої світової війни офіцера морського флоту призначають капітаном есмінця "Ґрейхаунд". Перше завдання нового командира – провести 37 кораблів Північною Атлантикою, яка нашпигована підводними човнами ворога. Щоб успішно завершити місію, зберегти судна і екіпаж цілими, капітан перш за все повинен виграти найбільшу битву – з власними страхами.

За мотивами реальних подій та роману "Добрий пастир / The Good Shepherd" С.С.Форестера.
Офіційний український трейлер:


Рейтинг MPAA: PG-13 - дітям до 13 років перегляд не бажаний
Вікова категорія: 12+

Тривалість: 01:31:42
Якість: 720p
Відео:
кодек:
розмір кадру: 1484х620
бітрейт: 2846 кб/с

Аудіо # 1:
мова: українська
озвучення: аматорське багатоголосе закадрове | Dzuski.com
кодек: 5.1
бітрейт: 640 кб/с
Інформація про озвучення:

Переклад: Анастасія Жищинська (офіційний)
Редакція і перевірка: Вояка Schweik
Ролі озвучили: Meltynjaka, Gidozepam4ik, Lomaev та Trina_D
Робота зі звуком: Chewey
Аудіо # 2:
мова: українська
озвучення: аматорське багатоголосе закадрове | Dzuski.com
кодек: 2.0
бітрейт: 256 кб/с

Аудіо # 3:
мова: англійська
переклад: оригінал
кодек: 5.1
бітрейт: 640 кб/с

Субтитри # 1:
мова: українська (написи)
тип: програмні (м'які)
формат: *.srt
переклад: Анастасія Жищинська
редагування: Вояка Schweik

Субтитри # 2:
мова: українська
тип: програмні (м'які)
формат: *.srt
переклад: Анастасія Жищинська

Субтитри # 3-4:
мова: англійська (повні, SDH)
тип: програмні (м'які)
формат: *.srt
Info
Код:
Complete name               : Greyhound (2020) [Ukr,Eng sub.Ukr,Eng] 720p [Hurtom].
Format                      :
Format version              : Version 4
File size                   : 2.81 GiB
Duration                    : 1 h 31 min
Overall bit rate            : 4 384 kb/s
Movie name                  : Грейхаунд: Битва за Атлантику / Greyhound (2020) [Ukr,Eng sub.Ukr,Eng] 720p [Hurtom]
Encoded date                : UTC 2020-10-30 21:38:45
Writing application         : v51.0.0 ('I Wish') 64-bit
Writing library             : libebml v1.4.0 + v1.6.2
Cover                       : Yes
Attachments                 : cover.jpg

Video
ID                          : 1
Format                      : AVC
Format/Info                 : Advanced Video Codec
Format profile              : [email protected]
Format settings             : CABAC / 5 Ref Frames
Format settings, CABAC      : Yes
Format settings, Reference  : 5 frames
Codec ID                    : V_MPEG4/ISO/AVC
Duration                    : 1 h 31 min
Bit rate                    : 2 846 kb/s
Width                       : 1 484 pixels
Height                      : 620 pixels
Display aspect ratio        : 2.40:1
Frame rate mode             : Constant
Frame rate                  : 23.976 (24000/1001) FPS
Color space                 : YUV
Chroma subsampling          : 4:2:0
Bit depth                   : 8 bits
Scan type                   : Progressive
Bits/(Pixel*Frame)          : 0.129
Stream size                 : 1.82 GiB (65%)
Title                       : Грейхаунд: Битва за Атлантику / Greyhound (2020) 720p [ATVP, MZABI]
Language                    : English
Default                     : Yes
Forced                      : No
Color range                 : Limited
Color primaries             : BT.709
Transfer characteristics    : BT.709
Matrix coefficients         : BT.709

Audio #1
ID                          : 2
Format                      : AC-3
Format/Info                 : Audio Coding 3
Commercial name             : Dolby Digital
Codec ID                    : A_AC3
Duration                    : 1 h 31 min
Bit rate mode               : Constant
Bit rate                    : 640 kb/s
Channel(s)                  : 6 channels
Channel layout              : L R C LFE Ls Rs
Sampling rate               : 48.0 kHz
Frame rate                  : 31.250 FPS (1536 SPF)
Compression mode            : Lossy
Stream size                 : 420 MiB (15%)
Title                       : MVO [Dzuski], 5.1 640 Kbps [Fixed]
Language                    : Ukrainian
Service kind                : Complete Main
Default                     : Yes
Forced                      : No

Audio #2
ID                          : 3
Format                      : AC-3
Format/Info                 : Audio Coding 3
Commercial name             : Dolby Digital
Codec ID                    : A_AC3
Duration                    : 1 h 31 min
Bit rate mode               : Constant
Bit rate                    : 256 kb/s
Channel(s)                  : 2 channels
Channel layout              : L R
Sampling rate               : 48.0 kHz
Frame rate                  : 31.250 FPS (1536 SPF)
Compression mode            : Lossy
Stream size                 : 168 MiB (6%)
Title                       : MVO [Dzuski], 2.0 256 Kbps
Language                    : Ukrainian
Service kind                : Complete Main
Default                     : No
Forced                      : No

Audio #3
ID                          : 4
Format                      : AC-3
Format/Info                 : Audio Coding 3
Commercial name             : Dolby Digital
Codec ID                    : A_AC3
Duration                    : 1 h 31 min
Bit rate mode               : Constant
Bit rate                    : 640 kb/s
Channel(s)                  : 6 channels
Channel layout              : L R C LFE Ls Rs
Sampling rate               : 48.0 kHz
Frame rate                  : 31.250 FPS (1536 SPF)
Compression mode            : Lossy
Stream size                 : 420 MiB (15%)
Title                       : Original, 5.1 640 Kbps
Language                    : English
Service kind                : Complete Main
Default                     : No
Forced                      : No

Text #1
ID                          : 5
Format                      : UTF-8
Codec ID                    : S_TEXT/UTF8
Codec ID/Info               : UTF-8 Plain Text
Duration                    : 1 h 24 min
Bit rate                    : 5 b/s
Count of elements           : 45
Stream size                 : 3.65 KiB (0%)
Title                       : Ukr Forced [Dzuski.com]
Language                    : Ukrainian
Default                     : Yes
Forced                      : No

Text #2
ID                          : 6
Format                      : UTF-8
Codec ID                    : S_TEXT/UTF8
Codec ID/Info               : UTF-8 Plain Text
Duration                    : 1 h 30 min
Bit rate                    : 89 b/s
Count of elements           : 1095
Stream size                 : 59.6 KiB (0%)
Title                       : Ukr Full [Apple TV+]
Language                    : Ukrainian
Default                     : No
Forced                      : No

Text #3
ID                          : 7
Format                      : UTF-8
Codec ID                    : S_TEXT/UTF8
Codec ID/Info               : UTF-8 Plain Text
Duration                    : 1 h 20 min
Bit rate                    : 66 b/s
Count of elements           : 1033
Stream size                 : 38.8 KiB (0%)
Title                       : Eng Full
Language                    : English
Default                     : No
Forced                      : No

Text #4
ID                          : 8
Format                      : UTF-8
Codec ID                    : S_TEXT/UTF8
Codec ID/Info               : UTF-8 Plain Text
Duration                    : 1 h 20 min
Bit rate                    : 72 b/s
Count of elements           : 1105
Stream size                 : 42.3 KiB (0%)
Title                       : Eng SDH
Language                    : English
Default                     : No
Forced                      : No



Джерело: &
Подяка за українізацію постерів п.mrgalser'у та п.Electroz'у.

Історія релізу:
12.07.2020 початковий реліз з офіційними українськими субтитрами
30.10.2020 15:44 реліз оновлено: додано українське аматорське озвучення Dzuski.com
30.10.2020 23:45 реліз оновлено: заміна української 5.1 доріжки на виправлену


Авторський реліз (завантажувати можна без реєстрації)
 Трекер:    Зареєстрований   

Завантажити / скачати фільм українською



відео для новачків



 Зареєстрований:   2020-10-30 23:45
 Розмір:   2.81 GB 
 Оцінка фільму:   9.5/10 (Голосів: 59)
 ЗАЛИШАЙТЕСЬ ЯКОМОГА ДОВШЕ НА РОЗДАЧІ! ЗАВАНТАЖИВ САМ - ДАЙ ЗАВАНТАЖИТИ ІНШИМ!
   
qarty1 
VIP


З нами з: 01.11.09
Востаннє: 17.01.21
Повідомлень: 405

2020-07-15 21:30  
слабо очікував більшого 6/10
bot 
робот


З нами з: 30.09.07
Востаннє: 26.05.05
Повідомлень: 26924

2020-10-30 15:43  
Тему перенесено з Фільми до форуму Фільми в HD

Причина перенесення: додано українське озвучення
igor911

Anonymous 







2020-10-30 15:45  
Реліз оновлено: додано українське озвучення
Anonymous 







2020-10-30 20:16  
Незабаром релі буде оновлено виправленим 5.1 звуком.
Anonymous 







2020-10-30 23:47  
Реліз оновлено: замінено українську 5.1 доріжку на виправлену - тепер українське озвучення чути добре
Dzuski.com 
VIP


З нами з: 08.09.19
Востаннє: 18.01.21
Повідомлень: 363

2020-10-31 12:05  
І тут те ж саме "Dzuski.com"
пан Струмок 
VIP


З нами з: 19.02.13
Востаннє: 16.01.21
Повідомлень: 311

2020-11-03 15:02  
За неприкрашену дійсність тих подій, вартий перегляду. Але не очікуйте побачити морську варіяцію Люті. 7/10
xomikvp 
Новенький


З нами з: 22.11.10
Востаннє: 17.01.21
Повідомлень: 15

2020-11-09 16:46  
Як на мене СУПЕР!!!!!
legat 
Новенький


З нами з: 18.12.11
Востаннє: 17.12.20
Повідомлень: 6

2020-11-17 23:37  
Фільм бомбезний. Звісно це не морський аналог "Люті" бо моряки воюють інакше ніж танкісти і драма на кораблі буде відрізнятися від драми в танку.
Актори стараються, хоч це і важко бо більшість подій відбуваються в тісному містку і режисер зміг ту тісноту передати. На відміну від "Мідвея" сюжет не провисає і не дає розслабитися. Заспокоїтись вдасться лише разом з капітаном.

П.С. у свсбк в інтернетах від фільму горить та палає, тому це ще одна причина подивитись цю чудову кінострічку, а то ті нащадки союзників Гітлера забембали своїм "можем повторіть".
Фільм їм з усього маху показує, що поки хтось тікав аж до Волги, інші люди топили німецькі субмарини. Наприклад вага лише металу на німецькому ПЧ близько 1 тисячі тон, що становить (1000/20) 50 танків типу Пз-3.

П.П.С. Том Генкс вкотре підтвердив, що бути з ним в одному транспорті небезпечно ))

ВАВУНЯ 
VIP


З нами з: 30.06.15
Востаннє: 16.01.21
Повідомлень: 300

2020-11-18 08:42  
чи буде дубляж?
дякую.

vladmihal 
Новенький


З нами з: 09.12.18
Востаннє: 16.01.21
Повідомлень: 1

2021-01-05 14:27  
Не розумію, чому тут всі порівнюють з Люттю. Це іронічний прикол? Лють - пафосне лайно в стилі рос.фільмів про 2 Світову, де "герої" пачками кладуть елітних "фашистів" всупереч всілякій логіці
Anonymous 







2021-01-05 14:29  
vladmihal написано:
Не розумію, чому тут всі порівнюють з Люттю

хто "всі"? тут немає жодного порівняння з Люттю.

пан Струмок написано:
Але не очікуйте побачити морську варіяцію Люті

legat написано:
Звісно це не морський аналог "Люті"

Ваш часовий пояс: GMT + 2 Години

Нова тема   Відповісти