Убивчий вогник / Mi gran noche (2015) 720p 2xUkr/Spa | Sub Eng

Нові коментарі

Нова тема   Відповісти
Автор Повідомлення
staf777 
Відео Гуртом - підтримка та поширення
Відео Гуртом - підтримка та поширення


З нами з: 16.11.16
Востаннє: 25.09.20
Повідомлень: 4038

2020-07-12 09:00  
Убивчий вогник / Mi gran noche (2015) 720p 2xUkr/Spa | Sub Eng

Убивчий вогник / Mi gran noche (2015) 720p 2xUkr/Spa | Sub Eng


Жанр: комедія
Країна: Іспанія



Кінокомпанія: Canal Plus, Enrique Cerezo Producciones Cinematográficas S.A., Telefonica Studios
Режисер: Алекс де ла Іглесія / Álex de la Iglesia
Актори: Рафаель / Raphael, Маріо Казас / Mario Casas, Бланка Суарез / Blanca Suárez, Кармен Мачі / Carmen Machi, Кароліна Банг / Carolina Bang, Пепон Ньєто / Pepón Nieto та інші

Сюжет:
Запис телевізійного новорічного шоу перетворюється на справжній хаос.


Тривалість: 01:37:22
Якість:
Відео:
кодек:
розмір кадру: 1280x532
бітрейт: 5340 кб/с

Аудіо # 1:
мова: українська
переклад: багатоголосий закадровий
кодек: 2.0
бітрейт: 192 кб/с

Аудіо # 2:
мова: українська
переклад: багатоголосий закадровий
кодек: 2.0
бітрейт: 192 кб/с

Аудіо # 3:
мова: іспанська
переклад: оригінал
кодек: 5.1
бітрейт: 1509 кб/с

Субтитри:
мова: англійська
тип: програмні (м'які)
формат: *.srt
Info
General
Unique ID : 291092047114898349116614672924559328860 (0xDAFE49FCA29868A2807A9B64D4D8C65C)
Complete name : Z:\Фільми в HD\Комедія\Mi gran noche (2015) 720p [2xUKR_SPA] [Hurtom].
Format :
Format version : Version 4
File size : 4.92 GiB
Duration : 1 h 37 min
Overall bit rate : 7 236 kb/s
Movie name : Убивчий вогник / Mi gran noche (2015) 720p [2xUKR_SPA] [Hurtom]
Encoded date : UTC 2020-07-12 06:03:00
Writing application : v46.0.0 ('No Deeper Escape') 64-bit
Writing library : libebml v1.3.10 + v1.5.2
Cover : Yes
Attachments : cover.jpg

Video
ID : 1
Format : AVC
Format/Info : Advanced Video Codec
Format profile : [email protected]
Format settings : CABAC / 12 Ref Frames
Format settings, CABAC : Yes
Format settings, Reference : 12 frames
Codec ID : V_MPEG4/ISO/AVC
Duration : 1 h 37 min
Bit rate : 5 340 kb/s
Width : 1 280 pixels
Height : 532 pixels
Display aspect ratio : 2.40:1
Frame rate mode : Constant
Frame rate : 23.976 (24000/1001) FPS
Color space : YUV
Chroma subsampling : 4:2:0
Bit depth : 8 bits
Scan type : Progressive
Bits/(Pixel*Frame) : 0.327
Stream size : 3.63 GiB (74%)
Writing library : core 148 r2665 a01e339
Encoding settings : cabac=1 / ref=12 / deblock=1:-3:-3 / analyse=0x3:0x133 / me=umh / subme=11 / psy=1 / psy_rd=1.10:0.00 / mixed_ref=1 / me_range=32 / chroma_me=1 / trellis=2 / 8x8dct=1 / cqm=0 / deadzone=21,11 / fast_pskip=0 / chroma_qp_offset=-2 / threads=17 / lookahead_threads=2 / sliced_threads=0 / nr=0 / decimate=0 / interlaced=0 / bluray_compat=0 / constrained_intra=0 / bframes=7 / b_pyramid=2 / b_adapt=2 / b_bias=0 / direct=3 / weightb=1 / open_gop=0 / weightp=2 / keyint=240 / keyint_min=23 / scenecut=40 / intra_refresh=0 / rc_lookahead=60 / rc=crf / mbtree=0 / crf=18.5 / qcomp=0.70 / qpmin=0 / qpmax=51 / qpstep=4 / vbv_maxrate=40000 / vbv_bufsize=40000 / crf_max=0.0 / nal_hrd=none / filler=0 / ip_ratio=1.30 / pb_ratio=1.20 / aq=3:0.60
Language : Spanish
Default : Yes
Forced : No

Audio #1
ID : 2
Format : AC-3
Format/Info : Audio Coding 3
Commercial name : Dolby Digital
Codec ID : A_AC3
Duration : 1 h 37 min
Bit rate mode : Constant
Bit rate : 192 kb/s
Channel(s) : 2 channels
Channel layout : L R
Sampling rate : 48.0 kHz
Frame rate : 31.250 FPS (1536 SPF)
Compression mode : Lossy
Stream size : 134 MiB (3%)
Title : MVO [Volia CINE+], 2.0 [stereo] 192 Kbps
Language : Ukrainian
Service kind : Complete Main
Default : Yes
Forced : Yes

Audio #2
ID : 3
Format : AC-3
Format/Info : Audio Coding 3
Commercial name : Dolby Digital
Codec ID : A_AC3
Duration : 1 h 37 min
Bit rate mode : Constant
Bit rate : 192 kb/s
Channel(s) : 2 channels
Channel layout : L R
Sampling rate : 48.0 kHz
Frame rate : 31.250 FPS (1536 SPF)
Compression mode : Lossy
Stream size : 134 MiB (3%)
Title : MVO [K1], 2.0 192 Kbps
Language : Ukrainian
Service kind : Complete Main
Default : No
Forced : No

Audio #3
ID : 4
Format :
Format/Info : Digital Theater Systems
Codec ID : A_DTS
Duration : 1 h 37 min
Bit rate mode : Constant
Bit rate : 1 509 kb/s
Channel(s) : 6 channels
Channel layout : C L R Ls Rs LFE
Sampling rate : 48.0 kHz
Frame rate : 93.750 FPS (512 SPF)
Bit depth : 24 bits
Compression mode : Lossy
Stream size : 1.03 GiB (21%)
Language : Spanish
Default : No
Forced : No

Text
ID : 5
Format : UTF-8
Codec ID : S_TEXT/UTF8
Codec ID/Info : UTF-8 Plain Text
Duration : 1 h 36 min
Bit rate : 75 b/s
Count of elements : 1831
Stream size : 53.5 KiB (0%)
Language : English
Default : No
Forced : No

Menu
00:00:00.000 : :Chapter 1
00:10:12.128 : :Chapter 2
00:20:22.279 : :Chapter 3
00:28:31.018 : :Chapter 4
00:38:07.719 : :Chapter 5
00:46:55.996 : :Chapter 6
00:57:49.357 : :Chapter 7
01:05:20.725 : :Chapter 8
01:14:31.233 : :Chapter 9
01:23:59.384 : :Chapter 10
01:30:42.120 : :Chapter 11
01:33:31.122 : :Chapter 12
Скріншоти
Доріжки - drakon87, Sando7, kinaxem
Джерело: &


 Трекер:    Зареєстрований   

Завантажити / скачати фільм українською



відео для новачків



 Зареєстрований:   2020-07-12 09:18
 Розмір:   4.92 GB 
 Оцінка фільму:   10/10 (Голосів: 3)
   
Інші релізи
   Убивчий вогник / Mi gran noche (2015) AVC 2xUkr/Spa Maters  8 / 0   1.69 GB   2020-06-14 18:19 
   Убивчий вогник / Mi gran noche (2015) NemoInFire  2 / 0   1.33 GB   2019-02-24 22:36 
Ваш часовий пояс: GMT + 2 Години

Нова тема   Відповісти