Оповідки з Кільця (Сезон 1) / Tales from the Loop (Season 1) (2020) UHD 2160p 4K HDR H.265 Ukr/Eng | Sub Ukr/Eng

Нові коментарі

Нова тема   Відповісти
Автор Повідомлення
RoMeL 
Відео Гуртом - підтримка та поширення
Відео Гуртом - підтримка та поширення


З нами з: 09.07.08
Востаннє: 28.11.20
Повідомлень: 208

2020-07-11 21:10  
Оповідки з Кільця (Сезон 1) / Tales from the Loop (Season 1) (2020) UHD 2160p 4K HDR H.265 Ukr/Eng | Sub Ukr/Eng




Жанр: фантастика, драма
Країна: США



Кінокомпанія: AMAZON
Режисер: Натанаіель Галперн
Актори: Ребекка Голл, Джонатан Прайс, Пол Шнайдер та інші

Сюжет:
До створення цього проекту надихнули чудові ілюстрації Саймона Сталенгаґа «Оповідки з кільця». Зустрічайте неймовірні пригоди городян, що мешкають над Кільцем - машиною, що була створена для відкриття і дослідження таємниць Всесвіту, що робить речі, які раніше вважалися науковою фантастикою.


Перекладено та озвучено студією Т.С. Cтруґачка

Тривалість: 1 серія: 50-60 хвилин (цілком серій: 8)
Перелік серій
Частина 1 "Кільце"
Частина 2 "Транспонування"
Частина 3 "Стазис"
Частина 4 "Лунасфера"
Частина 5 "Контроль"
Частина 6 "Паралель"
Частина 7 "Вороги"
Частина 8 "Дім"
Якість: 4K 2160p HDR H.265
Відео:
кодек: H.265 (HEVC)
розмір кадру: 3840 х 2160
бітрейт: ~14.3 Мбіт/сек
бітова глибина: 10 біт
кольоровий простір: BT.2020 (HDR)

Увага! Перед завантаженням переконайтесь, що ваш пристрій відтворення (та/або ПЗ) підтримує H.265 (HEVC)

Аудіо # 1:
мова: українська
переклад: багатоголосий закадровий
кодек: 5.1
бітрейт: 640 кб/с

Аудіо # 2:
мова: англійська
переклад: оригінал
кодек: E- 5.1
бітрейт: 640 кб/с

Субтитри # 1:
мова: українська
тип: програмні (м'які)
формат: *.srt

Субтитри # 2:
мова: англійська
тип: програмні (м'які)
формат: *.srt
Info

Код:
General
Unique ID                                : 165470856406141296594558708548354287028 (0x7C7C871927EA0A8F8BA2388659A9A5B4)
Complete name                            : /Volumes/Download/Shows/Tales.From.The.Loop.S01.2020..2160p.HDR.[Ukr.Eng]/Tales.From.The.Loop.S01E01.2020..2160p.HDR.[Ukr.Eng].
Format                                   :
Format version                           : Version 4
File size                                : 5.91 GiB
Duration                                 : 54mn 19s
Overall bit rate                         : 15.6 Mbps
Movie name                               : Tales.From.The.Loop.S01E01.2020..2160p.HDR.[Ukr.Eng]
Encoded date                             : UTC 2020-07-09 19:00:12
Writing application                      : v47.0.0 ('Black Flag') 64-bit
Writing library                          : libebml v1.3.10 + v1.5.2

Video
ID                                       : 1
Format                                   : HEVC
Format/Info                              : High Efficiency Video Coding
Format profile                           : Main [email protected]@Main
HDR format                               : SMPTE ST 2094 App 4, Version 0
Codec ID                                 : V_MPEGH/ISO/HEVC
Duration                                 : 54mn 19s
Bit rate                                 : 14.3 Mbps
Width                                    : 3 840 pixels
Height                                   : 2 160 pixels
Display aspect ratio                     : 16:9
Frame rate mode                          : Constant
Frame rate                               : 23.976 (24000/1001) fps
Standard                                 : NTSC
Color space                              : YUV
Chroma subsampling                       : 4:2:0 (Type 2)
Bit depth                                : 10 bits
Bits/(Pixel*Frame)                       : 0.072
Stream size                              : 5.42 GiB (92%)
Language                                 : English
Default                                  : Yes
Forced                                   : No
Color range                              : Limited
Color primaries                          : BT.2020
Transfer characteristics                 : PQ
Matrix coefficients                      : BT.2020 non-constant
Mastering display color primaries        : Display P3
Mastering display luminance              : min: 0.0001 cd/m2, max: 1000 cd/m2
Maximum Content Light Level              : 966 cd/m2
Maximum Frame-Average Light Level        : 87 cd/m2

Audio #1
ID                                       : 2
Format                                   : AC-3
Format/Info                              : Audio Coding 3
Commercial name                          : Dolby Digital
Codec ID                                 : A_AC3
Duration                                 : 54mn 19s
Bit rate mode                            : Constant
Bit rate                                 : 640 Kbps
Channel(s)                               : 6 channels
Channel layout                           : L R C LFE Ls Rs
Sampling rate                            : 48.0 KHz
Frame rate                               : 31.250 fps (1536 SPF)
Compression mode                         : Lossy
Stream size                              : 249 MiB (4%)
Language                                 : Ukrainian
Service kind                             : Complete Main
Default                                  : Yes
Forced                                   : No

Audio #2
ID                                       : 3
Format                                   : E-AC-3
Format/Info                              : Enhanced AC-3
Commercial name                          : Dolby Digital Plus
Codec ID                                 : A_EAC3
Duration                                 : 54mn 19s
Bit rate mode                            : Constant
Bit rate                                 : 640 Kbps
Channel(s)                               : 6 channels
Channel layout                           : L R C LFE Ls Rs
Sampling rate                            : 48.0 KHz
Frame rate                               : 31.250 fps (1536 SPF)
Compression mode                         : Lossy
Stream size                              : 249 MiB (4%)
Language                                 : English
Service kind                             : Complete Main
Default                                  : No
Forced                                   : No

Text #1
ID                                       : 4
Format                                   : UTF-8
Codec ID                                 : S_TEXT/UTF8
Codec ID/Info                            : UTF-8 Plain Text
Duration                                 : 50mn 17s
Bit rate                                 : 30 bps
Count of elements                        : 326
Stream size                              : 11.4 KiB (0%)
Language                                 : Ukrainian
Default                                  : No
Forced                                   : No

Text #2
ID                                       : 5
Format                                   : UTF-8
Codec ID                                 : S_TEXT/UTF8
Codec ID/Info                            : UTF-8 Plain Text
Duration                                 : 51mn 35s
Bit rate                                 : 25 bps
Count of elements                        : 428
Stream size                              : 9.81 KiB (0%)
Title                                    : English (SDH)
Language                                 : English
Default                                  : No
Forced                                   : No
Скріншоти




Джерело: Т.С. Cтруґачка & &
Особиста оцінка: 10 - без зайвих вагань рекомендую всім!


Авторський реліз (завантажувати можна без реєстрації)
 Трекер:    Зареєстрований   

Завантажити / скачати серіал українською



відео для новачків



 Зареєстрований:   2020-11-19 23:18
 Розмір:   46.64 GB 
 Оцінка серіалу:   10/10 (Голосів: 4)
   
nazar-pc 
Новенький


З нами з: 17.11.16
Востаннє: 27.11.20
Повідомлень: 12

2020-08-16 02:22  
Можна додати останню серію?
RoMeL 
Відео Гуртом - підтримка та поширення
Відео Гуртом - підтримка та поширення


З нами з: 09.07.08
Востаннє: 28.11.20
Повідомлень: 208

2020-11-19 23:20  
ТОРЕНТ ОНОВЛЕНО! ДОДАНА ФІНАЛЬНА СЕРІЯ СЕЗОНУ

Ваш часовий пояс: GMT + 2 Години

Нова тема   Відповісти