Перший лицар при дворі Короля Артура (Перший герой при дворі короля Артура) / A Kid in King Arthur's Court (1995) AVC 2xUkr/Eng | sub Eng

Нові коментарі

Нова тема   Відповісти
Автор Повідомлення
Arsenfpu 
Відео Гуртом - фільмокрай
Відео Гуртом - фільмокрай


З нами з: 30.04.09
Востаннє: 05.08.20
Повідомлень: 7115

2020-07-11 20:58  
Перший лицар при дворі Короля Артура (Перший герой при дворі короля Артура) / A Kid in King Arthur's Court (1995) AVC 2xUkr/Eng | sub Eng

Перший лицар при дворі Короля Артура (Перший герой при дворі короля Артура) / A Kid in King Arthur's Court (1995) AVC 2xUkr/Eng | sub Eng


Жанр: пригодницький, комедія, сімейний
Країна: США, Угорщина, Велика Британія



Кінокомпанія: Tapestry Films, Trimark Pictures, Walt Disney Pictures
Режисер: Майкл Готтліб
Актори: Томас Іен Ніколас, Джосс Екленд, Арт Малік, Палома Баеза, Кейт Уінслет, Деніел Крейг, Девід Тайсолл, Рон Муді, Беррі Стентон, Майкл Мельманн

Сюжет:
Великий чарівник середньовіччя Мерлін не знав, що «Лицарі Резеди» - це не благородний лицарський орден, а горда назва сучасної бейсбольної команди. В результаті чарівний вихор забирає 14-річного Келвіна, звичайного підлітка 90-х років у часи лицарських поєдинків, принцес і чарівників. Починається калейдоскоп палацових інтриг, поєдинків, викрадень принцес і інших атрибутів середньовічного лицарської життя. За допомогою своїх нових друзів, винахідливості і деяких досягнень прогресу ХХ століття Келвін, звичайно ж, перемагає зло і стає визнаним першим лицарем при дворі короля Артура.


Тривалість: 01:30:08
Якість:
Відео:
кодек:
розмір кадру: 1 024 х 544
бітрейт: 2 499 кб/с

Аудіо # 1:
мова: українська
переклад: багатоголосий закадровий
кодек: 2.0
бітрейт: 192 кб/с

Аудіо # 2:
мова: українська
переклад: двоголосий закадровий (з 5.1)
кодек: 2.0
бітрейт: 192 кб/с

Аудіо # 3:
мова: англійська
переклад: оригінал
кодек: 2.0
бітрейт: 192 кб/с

Субтитри:
мова: англійська
тип: програмні (м'які)
формат: *.srt
Скріншоти














Про файл
General
Unique ID : 82138040699745476524078356937436027069 (0x3DCB36123B50FB2EBFE52DD1C0BFD8BD)
Complete name : F:\A Kid In King Arthurs Court (1995) [2xUkr,Eng] AVC [Hurtom].
Format :
Format version : Version 4 / Version 2
File size : 1.94 GiB
Duration : 1h 30mn
Overall bit rate : 3 077 Kbps
Movie name : Перший лицар при дворі Короля Артура / A Kid In King Arthurs Court (1995)
Encoded date : UTC 2020-07-12 08:45:07
Writing application : v21.0.0 ('Tardigrades Will Inherit The Earth') 32-bit
Writing library : libebml v1.3.5 + v1.4.8
DURATION : 01:30:07.264000000
NUMBER_OF_FRAMES : 168977
NUMBER_OF_BYTES : 129774336
_STATISTICS_WRITING_APP : v21.0.0 ('Tardigrades Will Inherit The Earth') 32-bit
_STATISTICS_WRITING_DATE_UTC : 2020-07-12 08:45:07
_STATISTICS_TAGS : BPS DURATION NUMBER_OF_FRAMES NUMBER_OF_BYTES
Attachment : Yes

Video
ID : 1
Format : AVC
Format/Info : Advanced Video Codec
Format profile : [email protected]
Format settings, CABAC : Yes
Format settings, ReFrames : 4 frames
Codec ID : V_MPEG4/ISO/AVC
Duration : 1h 30mn
Bit rate : 2 499 Kbps
Width : 1 024 pixels
Height : 544 pixels
Display aspect ratio : 1.882
Frame rate : 23.976 fps
Color space : YUV
Chroma subsampling : 4:2:0
Bit depth : 8 bits
Scan type : Progressive
Bits/(Pixel*Frame) : 0.187
Stream size : 1.54 GiB (79%)
Writing library : core 157 r2935 545de2f
Encoding settings : cabac=1 / ref=3 / deblock=1:-1:-1 / analyse=0x3:0x113 / me=hex / subme=7 / psy=1 / psy_rd=1.00:0.15 / mixed_ref=1 / me_range=16 / chroma_me=1 / trellis=1 / 8x8dct=1 / cqm=0 / deadzone=21,11 / fast_pskip=1 / chroma_qp_offset=-3 / threads=12 / lookahead_threads=2 / sliced_threads=0 / nr=0 / decimate=1 / interlaced=0 / bluray_compat=0 / constrained_intra=0 / bframes=3 / b_pyramid=2 / b_adapt=1 / b_bias=0 / direct=1 / weightb=1 / open_gop=0 / weightp=2 / keyint=240 / keyint_min=23 / scenecut=40 / intra_refresh=0 / rc_lookahead=40 / rc=2pass / mbtree=1 / bitrate=2499 / ratetol=1.0 / qcomp=0.60 / qpmin=0 / qpmax=69 / qpstep=4 / cplxblur=20.0 / qblur=0.5 / ip_ratio=1.40 / aq=1:1.00

Audio #1
ID : 2
Format : AC-3
Format/Info : Audio Coding 3
Mode extension : CM (complete main)
Codec ID : A_AC3
Duration : 1h 30mn
Bit rate mode : Constant
Bit rate : 192 Kbps
Channel(s) : 2 channels
Channel positions : Front: L R
Sampling rate : 48.0 KHz
Bit depth : 16 bits
Compression mode : Lossy
Stream size : 124 MiB (6%)
Title : К1
Language : Ukrainian

Audio #2
ID : 3
Format : AC-3
Format/Info : Audio Coding 3
Mode extension : CM (complete main)
Codec ID : A_AC3
Duration : 1h 30mn
Bit rate mode : Constant
Bit rate : 192 Kbps
Channel(s) : 2 channels
Channel positions : Front: L R
Sampling rate : 48.0 KHz
Bit depth : 16 bits
Compression mode : Lossy
Stream size : 124 MiB (6%)
Title : Новий
Language : Ukrainian

Audio #3
ID : 4
Format : AC-3
Format/Info : Audio Coding 3
Mode extension : CM (complete main)
Codec ID : A_AC3
Duration : 1h 30mn
Bit rate mode : Constant
Bit rate : 192 Kbps
Channel(s) : 2 channels
Channel positions : Front: L R
Sampling rate : 48.0 KHz
Bit depth : 16 bits
Compression mode : Lossy
Stream size : 124 MiB (6%)
Language : English

Text
ID : 5
Format : UTF-8
Codec ID : S_TEXT/UTF8
Codec ID/Info : UTF-8 Plain Text
Language : English
Джерело:
За запис з К1 дякую пану РОМЕО
За доріжку від Нового дякую пану rooster
Особиста оцінка: не дивився


Срібний реліз (на рейтинг впливає 50% завантаженого)
 Трекер:    Зареєстрований   

Завантажити / скачати фільм українською



відео для новачків



 Зареєстрований:   2020-07-12 12:00
 Розмір:   1.94 GB 
 Оцінка фільму:   8/10 (Голосів: 6)
   
Ваш часовий пояс: GMT + 2 Години

Нова тема   Відповісти