Формула 1. Сезон 2020. Етап 2. Гран-Прі Штирії. Кваліфікація (11.07.2020) IPTV 720p Ukr/Eng

Нові коментарі

Нова тема   Відповісти
Автор Повідомлення
sergiyko.5 
VIP


З нами з: 25.02.16
Востаннє: 24.10.20
Повідомлень: 3614

2020-07-11 18:36  
Формула 1. Сезон 2020. Етап 2. Гран-Прі Штирії. Кваліфікація (11.07.2020) IPTV 720p Ukr/Eng


Формула 1. Сезон 2020. Етап 2. Гран-Прі Штирії. Кваліфікація (11.07.2020) IPTV 720p Ukr/Eng

Жанр: Перегони Формули 1
Країна: Австрія
Телеканал: ESPN HD
Коментар: Максим Подзігун (1), SkySports F1 (2)

Опис:
Кваліфікація другого етапу Гран-Прі Штирії 2020 року.


Якість: IPTV

Відео:кодек: розмір кадру: 1280 х 720 бітрейт: 5500 кб/с
Аудіо 1: мова: українська кодек: 2.0 бітрейт: 192 кб/с
Аудіо 2: мова: англійська кодек: 2.0 бітрейт: 128 кб/с
Тривалість:
01:14:45
Про файл:
General
Unique ID : 281252919404677498982452569444191228229 (0xD39757898FE075143DA0546ECF0ED145)
Complete name : D:\Documents\Torrents\F1.2020.02.Styria.Qualifying.720p.IPTV.Ukr.Eng.
Format :
Format version : Version 4
File size : 3.02 GiB
Duration : 1 h 14 min
Overall bit rate : 5 789 kb/s
Movie name : rip by sergiyko
Encoded date : UTC 2020-07-11 15:31:37
Writing application : v47.0.0 ('Black Flag') 64-bit
Writing library : libebml v1.3.10 + v1.5.2

Video
ID : 1
Format : AVC
Format/Info : Advanced Video Codec
Format profile : [email protected]
Format settings : CABAC / 4 Ref Frames
Format settings, CABAC : Yes
Format settings, Reference : 4 frames
Codec ID : V_MPEG4/ISO/AVC
Duration : 1 h 14 min
Bit rate mode : Constant
Bit rate : 5 472 kb/s
Width : 1 280 pixels
Height : 720 pixels
Display aspect ratio : 16:9
Frame rate mode : Constant
Frame rate : 59.940 (60000/1001) FPS
Color space : YUV
Chroma subsampling : 4:2:0
Bit depth : 8 bits
Scan type : Progressive
Bits/(Pixel*Frame) : 0.099
Stream size : 2.86 GiB (94%)
Language : English
Default : Yes
Forced : No

Audio #1
ID : 2
Format : AC-3
Format/Info : Audio Coding 3
Commercial name : Dolby Digital
Codec ID : A_AC3
Duration : 1 h 14 min
Bit rate mode : Constant
Bit rate : 192 kb/s
Channel(s) : 2 channels
Channel layout : L R
Sampling rate : 48.0 kHz
Frame rate : 31.250 FPS (1536 SPF)
Compression mode : Lossy
Delay relative to video : -1 s 723 ms
Stream size : 103 MiB (3%)
Title : Максим Подзігун
Language : Ukrainian
Service kind : Complete Main
Default : Yes
Forced : Yes

Audio #2
ID : 3
Format : LC
Format/Info : Advanced Audio Codec Low Complexity
Codec ID : A_AAC-2
Duration : 1 h 14 min
Bit rate : 125 kb/s
Channel(s) : 2 channels
Channel layout : L R
Sampling rate : 48.0 kHz
Frame rate : 46.875 FPS (1024 SPF)
Compression mode : Lossy
Delay relative to video : -1 s 723 ms
Stream size : 67.1 MiB (2%)
Language : English
Default : No
Forced : No
Скріншоти:


Запис/зведення: sergiyko



 Трекер:    Зареєстрований   

Завантажити / скачати торрент



відео для новачків



 Зареєстрований:   2020-07-11 18:36
 Розмір:   3.02 GB 
 Оцінка:   10/10 (Голосів: 23)
   
sergiykos 
Новенький


З нами з: 29.05.18
Востаннє: 19.10.20
Повідомлень: 6

2020-07-11 19:01  
Тізери обіцяють цікаву кваліфікацію.
sergiyko.5 
VIP


З нами з: 25.02.16
Востаннє: 24.10.20
Повідомлень: 3614

2020-07-11 19:10  
Відеофайл Подзігуна запису кваліфікації, тривалістю 2 години
https://mega.nz/file/dYkTUSTQ#RGlLKH_nGe87b4KKFRn4aQ8NPGn0xgUZMrMX_un_J4A

Dron1994 
Частий відвідувач


З нами з: 07.07.14
Востаннє: 23.10.20
Повідомлень: 32

2020-07-13 08:37  
Той момент, коли кваліфікація виявилась набагато цікавішою за гонку.
Ваш часовий пояс: GMT + 2 Години

Нова тема   Відповісти