Каблучка Намейса (The Pagan King) / Nameja gredzens (2018) 1080p Ukr/Eng | Sub Eng

Нові коментарі

Нова тема   Відповісти
Автор Повідомлення
staf777 
Відео Гуртом - підтримка та поширення
Відео Гуртом - підтримка та поширення


З нами з: 16.11.16
Востаннє: 27.09.20
Повідомлень: 4053

2020-07-11 10:58  
Каблучка Намейса (The Pagan King) / Nameja gredzens (2018) 1080p Ukr/Eng | Sub Eng

Каблучка Намейса (The Pagan King) / Nameja gredzens (2018) 1080p Ukr/Eng | Sub Eng

Жанр: екшн, драма, історичний
Країна: Велика Британія, Латвія



Кінокомпанія: Cinevilla Studio, Platforma Filma
Режисер: Айгарс Грауба / Aigars Grauba
Актори: Едвін Ендре / Edvin Endre, Джеймс Блур / James Bloor, Дайніс Грубе / Dainis Grube, Гінтс Андзанс / Gints Andzans, Іева Александрова-Еклоне / Ieva Aleksandrova-Eklone, Джеймс Александер / James Alexander, Томс Аунінс / Toms Aunins, Крістофер Дейн / Christopher Dane, Агріс Данилевич / Agris Danilevics, Айсте Діржюте / Aiste Dirziute

Сюжет:
XIII століття, епоха хрестових походів. Папа Римський доручає своєму бастарду Максу, відомому своєю жорстокістю, відправитися на північ і підпорядкувати волелюбних земгалів, які відкидають християнство. Макс отруює правителя земгалів в надії, що спадкоємцем стане один з його ставлеників, але той на смертному одрі віддає кільце королів кмітливому і хороброму простолюдину на ім'я Намей.

Тривалість: 01:50:07
Якість: 1080p
Відео:
кодек:
розмір кадру: 1920x800
бітрейт: 9235 кб/с

Аудіо # 1:
мова: українська
переклад: багатоголосий закадровий
кодек: 2.0 (стерео)
бітрейт: 192 кб/с

Аудіо # 2:
мова: англійська
переклад: оригінал
кодек: 5.1
бітрейт: 1509 кб/с

Субтитри: (Full)
мова: англійська
тип: програмні (м'які)
формат: *.srt
Info
Код:
General
Unique ID                   : 27188700037160822257765239025025618895 (0x14745A685E9B371B67DFDC6BC80F13CF)
Complete name               : Z:\Фільми в HD\Історичний\Nameja gredzens (The Pagan King) (2018) 720p [UKR_ENG] [Hurtom].
Format                      :
Format version              : Version 4
File size                   : 8.41 GiB
Duration                    : 1 h 50 min
Overall bit rate            : 10.9 Mb/s
Movie name                  : Каблучка Намейса / Nameja gredzens (The Pagan King) (2018) 720p [UKR_ENG] [Hurtom]
Encoded date                : UTC 2020-07-09 17:49:43
Writing application         : v46.0.0 ('No Deeper Escape') 64-bit
Writing library             : libebml v1.3.10 + v1.5.2
Cover                       : Yes
Attachments                 : cover.jpg

Video
ID                          : 1
Format                      : AVC
Format/Info                 : Advanced Video Codec
Format profile              : [email protected]
Format settings             : CABAC / 4 Ref Frames
Format settings, CABAC      : Yes
Format settings, Reference  : 4 frames
Codec ID                    : V_MPEG4/ISO/AVC
Duration                    : 1 h 50 min
Bit rate                    : 9 235 kb/s
Width                       : 1 920 pixels
Height                      : 800 pixels
Display aspect ratio        : 2.40:1
Frame rate mode             : Constant
Frame rate                  : 25.000 FPS
Color space                 : YUV
Chroma subsampling          : 4:2:0
Bit depth                   : 8 bits
Scan type                   : Progressive
Bits/(Pixel*Frame)          : 0.240
Stream size                 : 7.10 GiB (84%)
Writing library             : core 152 r2851 ba24899
Encoding settings           : cabac=1 / ref=3 / deblock=1:0:0 / analyse=0x3:0x113 / me=hex / subme=7 / psy=1 / psy_rd=1.00:0.00 / mixed_ref=1 / me_range=16 / chroma_me=1 / trellis=1 / 8x8dct=1 / cqm=0 / deadzone=21,11 / fast_pskip=1 / chroma_qp_offset=-2 / threads=12 / lookahead_threads=2 / sliced_threads=0 / nr=0 / decimate=1 / interlaced=0 / bluray_compat=0 / constrained_intra=0 / bframes=3 / b_pyramid=2 / b_adapt=1 / b_bias=0 / direct=1 / weightb=1 / open_gop=0 / weightp=2 / keyint=250 / keyint_min=25 / scenecut=40 / intra_refresh=0 / rc_lookahead=40 / rc=2pass / mbtree=1 / bitrate=9235 / ratetol=1.0 / qcomp=0.60 / qpmin=0 / qpmax=69 / qpstep=4 / cplxblur=20.0 / qblur=0.5 / vbv_maxrate=62500 / vbv_bufsize=78125 / nal_hrd=none / filler=0 / ip_ratio=1.40 / aq=1:1.00
Language                    : English
Default                     : Yes
Forced                      : No

Audio #1
ID                          : 2
Format                      : AC-3
Format/Info                 : Audio Coding 3
Commercial name             : Dolby Digital
Codec ID                    : A_AC3
Duration                    : 1 h 50 min
Bit rate mode               : Constant
Bit rate                    : 192 kb/s
Channel(s)                  : 2 channels
Channel layout              : L R
Sampling rate               : 48.0 kHz
Frame rate                  : 31.250 FPS (1536 SPF)
Compression mode            : Lossy
Stream size                 : 151 MiB (2%)
Title                       : Новий [MVO] - 2.0 [stereo] 192 kbps
Language                    : Ukrainian
Service kind                : Complete Main
Default                     : Yes
Forced                      : Yes

Audio #2
ID                          : 3
Format                      :
Format/Info                 : Digital Theater Systems
Codec ID                    : A_DTS
Duration                    : 1 h 50 min
Bit rate mode               : Constant
Bit rate                    : 1 509 kb/s
Channel(s)                  : 6 channels
Channel layout              : C L R Ls Rs LFE
Sampling rate               : 48.0 kHz
Frame rate                  : 93.750 FPS (512 SPF)
Bit depth                   : 24 bits
Compression mode            : Lossy
Stream size                 : 1.16 GiB (14%)
Language                    : English
Default                     : No
Forced                      : No

Text
ID                          : 4
Format                      : UTF-8
Codec ID                    : S_TEXT/UTF8
Codec ID/Info               : UTF-8 Plain Text
Duration                    : 1 h 44 min
Bit rate                    : 39 b/s
Count of elements           : 889
Stream size                 : 30.2 KiB (0%)
Title                       : Full
Language                    : English
Default                     : No
Forced                      : No

Menu
00:00:00.000                : :Chapter 01
00:10:22.040                : :Chapter 02
00:19:21.440                : :Chapter 03
00:27:29.680                : :Chapter 04
00:36:26.480                : :Chapter 05
00:45:40.120                : :Chapter 06
00:54:46.920                : :Chapter 07
01:03:04.200                : :Chapter 08
01:11:25.360                : :Chapter 09
01:21:44.080                : :Chapter 10
01:30:27.040                : :Chapter 11
01:39:19.080                : :Chapter 12
Скріншоти



Українська доріжка:
Запис з ТБ - Bohdan237
Зведення - -_-B_Е_N_D_E_R-_-

Джерело: &
Особиста оцінка: 0 - не дивився

Каблучка Намейса (The Pagan King) / Nameja gredzens (2018) 1080p Ukr/Eng | Sub Eng Каблучка Намейса (The Pagan King) / Nameja gredzens (2018) 1080p Ukr/Eng | Sub Eng


 Трекер:    Зареєстрований   

Завантажити / скачати фільм українською



відео для новачків



 Зареєстрований:   2020-07-11 13:42
 Розмір:   8.41 GB 
 Оцінка фільму:   9/10 (Голосів: 6)
   
Ваш часовий пояс: GMT + 2 Години

Нова тема   Відповісти