Піноккіо / Pinocchio (1940) 1080p H.265 3хUkr/Eng | Sub Ukr/Eng

Нові коментарі

Нова тема   Відповісти
Автор Повідомлення
Anonymous 







2020-07-10 23:07  
Піноккіо / Pinocchio (1940) 1080p H.265 3хUkr/Eng | Sub Ukr/Eng

Піноккіо / Pinocchio (1940) 1080p H.265 3хUkr/Eng | Sub Ukr/Eng


Жанр: анімація, комедія, сімейний, фентезі, музичний
Країна: США
Кінокомпанія: Walt Disney Productions
Режисер: Хемільтон Лацке, Норман Фергюсон, Вілфред Джексон, Т. Хей, Джек Кінні, Білл Робертс, Бен Шарпстен
Ролі озвучують: Мел Бланк, Дон Броді, Стюарт Б'юкенен, Вальтер Кетлетт, Маріон Дарлінгтон, Френкі Дарро, Кліфф Едвардс, Дікі Джонс, Чарльз Юделс, Джон МакЛейш

Сюжет:
Старий майстер Джепетто - самотній веселий чоловік зробив з дерева ляльку-маріонетку і назвав її Піноккіо. Коли падала зоря він загадав бажання, щоб Піноккіо став справжнім хлопчиком. Блакитна фея поставила умову - щоб стати справжнім, герой має проявити свою хоробрість і чесність у добрих справах. А ще вона призначила йому совість в обличчі малого цвіркуна для того, щоб той наглядав за Піноккіо. І ось вони відправляються назустріч незвичайним пригодам...

Тривалість: 01:27:44
Якість:

Відео:
кодек: H.265 (HEVC)
розмір кадру: 1452 x 1078
бітрейт: 6 272 кб/с
бітова глибина: 10 біт

Увага! Перед завантаженням переконайтесь, що ваш пристрій відтворення (та/або ПЗ) підтримує H.265 (HEVC)

Аудіо # 1:
мова: українська
переклад: двоголосий закадровий | TV4
кодек: AC-3 2.0
бітрейт: 192 кб/с

Аудіо # 2:
мова: українська
переклад: двоголосий закадровий | ВІKКОН
кодек: AC-3 5.1
бітрейт: 448 кб/с

Аудіо # 3:
мова: українська
переклад: багатоголосий закадровий | Mister rock & МуЗа
кодек: AC-3 2.0
бітрейт: 192 кб/с

Аудіо # 4:
мова: англійська
переклад: оригінал
кодек: 5.1
бітрейт: 1510 кб/с

Аудіо # 5:
мова: англійська
переклад: оригінал | коментарі
кодек: AC-3 2.0
бітрейт: 192 кб/с

Субтитри # 1: (Full)
мова: українська
тип: програмні (м'які)
формат: *.srt

Субтитри # 2-3: (Full #1, Full #2)
мова: англійська
тип: програмні (м'які)
формат: *.srt


Info
Код:
General
Unique ID                                : 17495901601515678149667764437289511228 (0xD29968C66853C8F522233B4923BA93C)
Complete name                            : Pinocchio (1940) 1080p H.265 [3xUKR_ENG] [Hurtom].
Format                                   :
Format version                           : Version 4
File size                                : 5.40 GiB
Duration                                 : 1 h 27 min
Overall bit rate                         : 8 808 kb/s
Movie name                               : Піноккіо / Pinocchio (1940)
Encoded date                             : UTC 2020-07-09 23:19:17
Writing application                      : v20.0.0 ('I Am The Sun') 64-bit
Writing library                          : libebml v1.3.5 + v1.4.8
Cover                                    : Yes
Attachments                              : Cover.jpg

Video
ID                                       : 1
Format                                   : HEVC
Format/Info                              : High Efficiency Video Coding
Format profile                           : Main [email protected]@High
Codec ID                                 : V_MPEGH/ISO/HEVC
Duration                                 : 1 h 27 min
Bit rate                                 : 6 271 kb/s
Width                                    : 1 452 pixels
Height                                   : 1 078 pixels
Display aspect ratio                     : 4:3
Frame rate mode                          : Constant
Frame rate                               : 23.976 (23976/1000) FPS
Original frame rate                      : 23.976 (24000/1001) FPS
Color space                              : YUV
Chroma subsampling                       : 4:2:0
Bit depth                                : 10 bits
Bits/(Pixel*Frame)                       : 0.167
Stream size                              : 3.84 GiB (71%)
Title                                    : Піноккіо / Pinocchio (1940)
Writing library                          : x265 3.3+1-g554c887ac:[Windows][MSVC 1924][64 bit] 10bit
Encoding settings                        : cpuid=1111039 / frame-threads=3 / numa-pools=12 / wpp / no-pmode / no-pme / no-psnr / no-ssim / log-level=2 / input-csp=1 / input-res=1452x1078 / interlace=0 / total-frames=126216 / level-idc=41 / high-tier=1 / uhd-bd=0 / ref=5 / no-allow-non-conformance / no-repeat-headers / annexb / no-aud / no-hrd / info / hash=0 / no-temporal-layers / open-gop / min-keyint=23 / keyint=240 / gop-lookahead=0 / bframes=10 / b-adapt=2 / b-pyramid / bframe-bias=0 / rc-lookahead=60 / lookahead-slices=4 / scenecut=40 / hist-scenecut=0 / radl=0 / no-splice / no-intra-refresh / ctu=32 / min-cu-size=8 / rect / amp / max-tu-size=32 / tu-inter-depth=4 / tu-intra-depth=4 / limit-tu=1 / rdoq-level=2 / dynamic-rd=0.00 / no-ssim-rd / signhide / no-tskip / nr-intra=0 / nr-inter=0 / no-constrained-intra / no-strong-intra-smoothing / max-merge=4 / limit-refs=2 / limit-modes / me=3 / subme=7 / merange=57 / temporal-mvp / no-frame-dup / no-hme / weightp / weightb / no-analyze-src-pics / deblock=-3:-3 / no-sao / no-sao-non-deblock / rd=6 / selective-sao=0 / no-early-skip / no-rskip / no-fast-intra / no-tskip-fast / no-cu-lossless / no-b-intra / no-splitrd-skip / rdpenalty=0 / psy-rd=2.00 / psy-rdoq=1.00 / no-rd-refine / no-lossless / cbqpoffs=0 / crqpoffs=0 / rc=crf / crf=20.0 / qcomp=0.65 / qpstep=4 / stats-write=0 / stats-read=0 / vbv-maxrate=50000 / vbv-bufsize=50000 / vbv-init=0.9 / crf-max=0.0 / crf-min=0.0 / ipratio=1.40 / pbratio=1.30 / aq-mode=1 / aq-strength=1.00 / no-cutree / zone-count=0 / no-strict-cbr / qg-size=32 / no-rc-grain / qpmax=69 / qpmin=0 / no-const-vbv / sar=1 / overscan=0 / videoformat=5 / range=0 / colorprim=1 / transfer=1 / colormatrix=1 / chromaloc=0 / display-window=0 / cll=0,0 / min-luma=0 / max-luma=1023 / log2-max-poc-lsb=8 / vui-timing-info / vui-hrd-info / slices=1 / no-opt-qp-pps / no-opt-ref-list-length-pps / no-multi-pass-opt-rps / scenecut-bias=0.05 / hist-threshold=0.01 / no-opt-cu-delta-qp / no-aq-motion / no-hdr10 / no-hdr10-opt / no-dhdr10-opt / no-idr-recovery-sei / analysis-reuse-level=0 / analysis-save-reuse-level=0 / analysis-load-reuse-level=0 / scale-factor=0 / refine-intra=0 / refine-inter=0 / refine-mv=1 / refine-ctu-distortion=0 / no-limit-sao / ctu-info=0 / no-lowpass-dct / refine-analysis-type=0 / copy-pic=1 / max-ausize-factor=1.0 / no-dynamic-refine / no-single-sei / no-hevc-aq / no-svt / no-field / qp-adaptation-range=1.00 / no-scenecut-aware-qpconformance-window-offsets / right=0 / bottom=0
Default                                  : Yes
Forced                                   : No
Color range                              : Limited
Color primaries                          : BT.709
Transfer characteristics                 : BT.709
Matrix coefficients                      : BT.709

Audio #1
ID                                       : 2
Format                                   : AC-3
Format/Info                              : Audio Coding 3
Commercial name                          : Dolby Digital
Codec ID                                 : A_AC3
Duration                                 : 1 h 27 min
Bit rate mode                            : Constant
Bit rate                                 : 192 kb/s
Channel(s)                               : 2 channels
Channel layout                           : L R
Sampling rate                            : 48.0 kHz
Frame rate                               : 31.250 FPS (1536 SPF)
Compression mode                         : Lossy
Stream size                              : 120 MiB (2%)
Title                                    : / 2.0 Ch / 192 kbps / DVO / TB4 / Медіа Дім Рава
Language                                 : Ukrainian
Service kind                             : Complete Main
Default                                  : Yes
Forced                                   : Yes

Audio #2
ID                                       : 3
Format                                   : AC-3
Format/Info                              : Audio Coding 3
Commercial name                          : Dolby Digital
Codec ID                                 : A_AC3
Duration                                 : 1 h 27 min
Bit rate mode                            : Constant
Bit rate                                 : 448 kb/s
Channel(s)                               : 6 channels
Channel layout                           : L R C LFE Ls Rs
Sampling rate                            : 48.0 kHz
Frame rate                               : 31.250 FPS (1536 SPF)
Compression mode                         : Lossy
Stream size                              : 281 MiB (5%)
Title                                    : / 5.1 Ch / 448 kbps / DVO / Mister rock та МуЗа
Language                                 : Ukrainian
Service kind                             : Complete Main
Default                                  : No
Forced                                   : No

Audio #3
ID                                       : 4
Format                                   : AC-3
Format/Info                              : Audio Coding 3
Commercial name                          : Dolby Digital
Codec ID                                 : A_AC3
Duration                                 : 1 h 27 min
Bit rate mode                            : Constant
Bit rate                                 : 192 kb/s
Channel(s)                               : 2 channels
Channel layout                           : L R
Sampling rate                            : 48.0 kHz
Frame rate                               : 31.250 FPS (1536 SPF)
Compression mode                         : Lossy
Stream size                              : 120 MiB (2%)
Title                                    : / 2.0 Ch / 192 kbps / MVO / Так треба продакшн на замовлення відеокомпанії ВІККОН
Language                                 : Ukrainian
Service kind                             : Complete Main
Default                                  : No
Forced                                   : No

Audio #4
ID                                       : 5
Format                                   :
Format/Info                              : Digital Theater Systems
Codec ID                                 : A_DTS
Duration                                 : 1 h 27 min
Bit rate mode                            : Constant
Bit rate                                 : 1 509 kb/s
Channel(s)                               : 6 channels
Channel layout                           : C L R Ls Rs LFE
Sampling rate                            : 48.0 kHz
Frame rate                               : 93.750 FPS (512 SPF)
Bit depth                                : 24 bits
Compression mode                         : Lossy
Stream size                              : 947 MiB (17%)
Title                                    : / 5.1 Ch / 1509 kbps / Original
Language                                 : English
Default                                  : No
Forced                                   : No

Audio #5
ID                                       : 6
Format                                   : AC-3
Format/Info                              : Audio Coding 3
Commercial name                          : Dolby Digital
Codec ID                                 : A_AC3
Duration                                 : 1 h 27 min
Bit rate mode                            : Constant
Bit rate                                 : 192 kb/s
Channel(s)                               : 2 channels
Channel layout                           : L R
Sampling rate                            : 48.0 kHz
Frame rate                               : 31.250 FPS (1536 SPF)
Compression mode                         : Lossy
Stream size                              : 120 MiB (2%)
Title                                    : / 2.0 Ch / 192 kbps / Original / Commentary
Language                                 : English
Service kind                             : Complete Main
Default                                  : No
Forced                                   : No

Text #1
ID                                       : 7
Format                                   : UTF-8
Codec ID                                 : S_TEXT/UTF8
Codec ID/Info                            : UTF-8 Plain Text
Duration                                 : 1 h 27 min
Bit rate                                 : 77 b/s
Count of elements                        : 1012
Stream size                              : 49.5 KiB (0%)
Title                                    : Full
Language                                 : Ukrainian
Default                                  : No
Forced                                   : No

Text #2
ID                                       : 8
Format                                   : UTF-8
Codec ID                                 : S_TEXT/UTF8
Codec ID/Info                            : UTF-8 Plain Text
Duration                                 : 1 h 27 min
Bit rate                                 : 48 b/s
Count of elements                        : 1002
Stream size                              : 30.8 KiB (0%)
Title                                    : Full #1
Language                                 : English
Default                                  : No
Forced                                   : No

Text #3
ID                                       : 9
Format                                   : UTF-8
Codec ID                                 : S_TEXT/UTF8
Codec ID/Info                            : UTF-8 Plain Text
Duration                                 : 1 h 27 min
Bit rate                                 : 57 b/s
Count of elements                        : 1211
Stream size                              : 36.8 KiB (0%)
Title                                    : Full #2
Language                                 : English
Default                                  : No
Forced                                   : No

Menu
00:00:00.000                             : en:Opening Credits ("When You Wish Upon A Star")
00:02:21.516                             : en:One Night, A Long Time Ago...
00:06:16.584                             : en:"Little Wooden Head"
00:11:33.484                             : en:Geppetto's Wish
00:15:17.082                             : en:The Blue Fairy
00:18:43.705                             : en:"Give A Little Whistle"
00:21:33.750                             : en:A Wish Come True
00:26:58.366                             : en:Off To School
00:28:48.101                             : en:Honest John and Gideon
00:30:45.468                             : en:Pinocchio Is Led Astray ("Hi Diddle Dee Dee")
00:36:32.440                             : en:"I've Got No Strings"
00:40:56.328                             : en:Pinocchio Taken Prisoner
00:47:43.276                             : en:The Blue Fairy Comes To Pinocchio's Aid
00:50:32.654                             : en:The Coachman's Proposition
00:53:06.808                             : en:Honest John Waylays Pinocchio Again
00:57:06.256                             : en:Pleasure Island
00:58:47.899                             : en:Later That Night
01:04:06.884                             : en:Lampwick Makes a Jackass of Himself
01:06:31.987                             : en:Sad Homecoming
01:09:08.894                             : en:The Undersea Search For Geppetto
01:14:52.237                             : en:Monstro Awakens
01:17:01.283                             : en:A Soggy Reunion
01:20:08.470                             : en:A Whale of a Sneeze
01:24:29.647                             : en:The Dream Fulfilled
01:27:43.257                             : en:
Світлини




Джерело: &
Особиста оцінка: 0 - не дивився


Срібний реліз (на рейтинг впливає 50% завантаженого)
 Трекер:    Зареєстрований   

Завантажити / скачати мультфільм українською



відео для новачків



 Зареєстрований:   2020-07-10 23:07
 Розмір:   5.4 GB 
 Оцінка мультфільму:   10/10 (Голосів: 3)
   
Інші релізи
   Піноккіо / Pinocchio (1940) AVC 3хUkr/Eng | Sub Ukr/Eng Arsenfpu  10 / 1   2.16 GB   2018-11-26 11:10 
   Піноккіо / Pinocchio (1940) Remux 1080p 3xUkr/2xEng | Sub Ukr/Eng urij546724  2 / 0   20.16 GB   2018-08-22 06:12 
   Піноккіо / Pinocchio (1940) 2хUkr/Eng | Sub Ukr/Eng MutuLI  6 / 0   1.85 GB   2011-12-23 17:18 
   Піноккіо / Pinocchio (1940) 1080p Ukr/Eng | Sub Ukr/Eng TPEM  7 / 1   3.98 GB   2011-01-06 08:31 
   Пінокіо / Pinocchio (1940) Ukr/Eng Mister rock  7 / 0   1.34 GB   2011-01-05 11:40 
Ваш часовий пояс: GMT + 2 Години

Нова тема   Відповісти