Облога / The Siege (1998) 1080p H.265 Ukr/Eng | Sub Eng

Нові коментарі

Нова тема   Відповісти
Автор Повідомлення
Anonymous 







2020-07-11 00:03  
Облога / The Siege (1998) 1080p H.265 Ukr/Eng | Sub Eng

Облога / The Siege (1998) 1080p H.265 Ukr/Eng | Sub Eng


Жанр: бойовик, детектив, трилер
Країна: США
Кінокомпанія: Twentieth Century Fox
Режисер: Едвард Цвік
Актори: Дензел Вашинґтон / Denzel Washington, Брюс Вілліс / Bruce Willis, Аннетт Бенінг / Annette Bening, Тоні Шелхоуб / Tony Shalhoub, Семі Буаджила / Sami Bouajila

Сюжет:
Коли в Брукліні злітає в повітря автобус і на вулицях Нью-Йорка розгортається кривавий терор, Хаб - Хаббарт, глава Об'єднаного Антитерористичного Підрозділу ФБР отримує завдання затримати терористів і пред'явити їм звинувачення. Еліза Крафт - таємний оперативний агент ЦРУ. Вона має цінні джерела інформації в середовищі американців арабського походження і тісно пов'язана з ними. Хаб і Еліза працюють разом, об'єднавшись для спільної боротьби проти терористської групи.

Але цього виявляється недостатньо. Вимоги громадськості забезпечити безпеку громадян змушують президента США оголосити надзвичайний стан, і звернутися по допомогу до армії. Генерал Вільям Деверо рішуче береться за справу з наведення військового ладу.

Тривалість: 01:56:05
Якість:

Відео:
кодек: H.265 (HEVC)
розмір кадру: 1920 x 812
бітрейт: 10 749 кб/с
бітова глибина: 10 біт

Увага! Перед завантаженням переконайтесь, що ваш пристрій відтворення (та/або ПЗ) підтримує H.265 (HEVC)

Аудіо # 1:
мова: українська
переклад: двоголосий закадровий ,
кодек: AC-3 5.1
бітрейт: 384 кб/с

Аудіо # 2:
мова: англійська
переклад: оригінал
кодек: 5.1
бітрейт: 1510 кб/с

Аудіо # 3:
мова: англійська
переклад: оригінал | коментарі
кодек: AC-3 2.0
бітрейт: 224 кб/с

Субтитри # 1: (Full)
мова: англійська
тип: програмні (м'які)
формат: *.srt


Info
Код:
General
Unique ID                                : 10773888384329315700185694807030404262 (0x81AF9B57F6F7917601B3747FEFE94A6)
Complete name                            : The Siege (1998) 1080p H.265 [UKR_ENG] [Hurtom].
Format                                   :
Format version                           : Version 4
File size                                : 10.4 GiB
Duration                                 : 1 h 56 min
Overall bit rate                         : 12.9 Mb/s
Movie name                               : Облога / The Siege (1998)
Encoded date                             : UTC 2020-05-18 15:05:45
Writing application                      : v20.0.0 ('I Am The Sun') 64-bit
Writing library                          : libebml v1.3.5 + v1.4.8
Cover                                    : Yes
Attachments                              : Cover.jpg

Video
ID                                       : 1
Format                                   : HEVC
Format/Info                              : High Efficiency Video Coding
Format profile                           : Main [email protected]@High
Codec ID                                 : V_MPEGH/ISO/HEVC
Duration                                 : 1 h 56 min
Bit rate                                 : 10.7 Mb/s
Width                                    : 1 920 pixels
Height                                   : 812 pixels
Display aspect ratio                     : 2.35:1
Frame rate mode                          : Constant
Frame rate                               : 23.976 (24000/1001) FPS
Color space                              : YUV
Chroma subsampling                       : 4:2:0
Bit depth                                : 10 bits
Bits/(Pixel*Frame)                       : 0.288
Stream size                              : 8.72 GiB (84%)
Title                                    : Облога / The Siege (1998)
Writing library                          : x265 3.3+2-gbe2d82093:[Windows][GCC 10.0.1][64 bit] 10bit
Encoding settings                        : cpuid=1111039 / frame-threads=4 / numa-pools=16 / wpp / no-pmode / no-pme / no-psnr / no-ssim / log-level=2 / input-csp=1 / input-res=1920x812 / interlace=0 / total-frames=167013 / level-idc=41 / high-tier=1 / uhd-bd=0 / ref=5 / no-allow-non-conformance / no-repeat-headers / annexb / no-aud / no-hrd / info / hash=0 / no-temporal-layers / open-gop / min-keyint=23 / keyint=240 / gop-lookahead=0 / bframes=16 / b-adapt=2 / b-pyramid / bframe-bias=0 / rc-lookahead=60 / lookahead-slices=1 / scenecut=40 / hist-scenecut=0 / radl=0 / no-splice / no-intra-refresh / ctu=32 / min-cu-size=8 / rect / amp / max-tu-size=32 / tu-inter-depth=4 / tu-intra-depth=4 / limit-tu=1 / rdoq-level=2 / dynamic-rd=0.00 / no-ssim-rd / signhide / no-tskip / nr-intra=0 / nr-inter=0 / no-constrained-intra / no-strong-intra-smoothing / max-merge=5 / limit-refs=3 / limit-modes / me=3 / subme=7 / merange=57 / temporal-mvp / no-frame-dup / hme / Level / merange / L0,L1,L2=16,32,57 / weightp / weightb / no-analyze-src-pics / deblock=-3:-3 / no-sao / no-sao-non-deblock / rd=6 / selective-sao=0 / no-early-skip / rskip / rskip-edge-threshold=0.050000 / no-fast-intra / no-tskip-fast / no-cu-lossless / b-intra / no-splitrd-skip / rdpenalty=0 / psy-rd=1.40 / psy-rdoq=0.60 / no-rd-refine / no-lossless / cbqpoffs=0 / crqpoffs=0 / rc=crf / crf=20.0 / qcomp=0.65 / qpstep=4 / stats-write=0 / stats-read=0 / vbv-maxrate=50000 / vbv-bufsize=50000 / vbv-init=0.9 / crf-max=0.0 / crf-min=0.0 / ipratio=1.40 / pbratio=1.30 / aq-mode=1 / aq-strength=1.00 / no-cutree / zone-count=0 / no-strict-cbr / qg-size=32 / no-rc-grain / qpmax=69 / qpmin=0 / no-const-vbv / sar=1 / overscan=0 / videoformat=5 / range=0 / colorprim=1 / transfer=1 / colormatrix=1 / chromaloc=0 / display-window=0 / cll=0,0 / min-luma=0 / max-luma=1023 / log2-max-poc-lsb=8 / vui-timing-info / vui-hrd-info / slices=1 / no-opt-qp-pps / no-opt-ref-list-length-pps / no-multi-pass-opt-rps / scenecut-bias=0.05 / hist-threshold=0.01 / no-opt-cu-delta-qp / no-aq-motion / no-hdr10 / no-hdr10-opt / no-dhdr10-opt / no-idr-recovery-sei / analysis-reuse-level=0 / analysis-save-reuse-level=0 / analysis-load-reuse-level=0 / scale-factor=0 / refine-intra=0 / refine-inter=0 / refine-mv=1 / refine-ctu-distortion=0 / no-limit-sao / ctu-info=0 / no-lowpass-dct / refine-analysis-type=0 / copy-pic=1 / max-ausize-factor=1.0 / no-dynamic-refine / no-single-sei / no-hevc-aq / no-svt / no-field / qp-adaptation-range=1.00 / no-scenecut-aware-qpconformance-window-offsets / right=0 / bottom=0
Language                                 : English
Default                                  : Yes
Forced                                   : No
Color range                              : Limited
Color primaries                          : BT.709
Transfer characteristics                 : BT.709
Matrix coefficients                      : BT.709

Audio #1
ID                                       : 2
Format                                   : AC-3
Format/Info                              : Audio Coding 3
Commercial name                          : Dolby Digital
Codec ID                                 : A_AC3
Duration                                 : 1 h 56 min
Bit rate mode                            : Constant
Bit rate                                 : 384 kb/s
Channel(s)                               : 6 channels
Channel layout                           : L R C LFE Ls Rs
Sampling rate                            : 48.0 kHz
Frame rate                               : 31.250 FPS (1536 SPF)
Compression mode                         : Lossy
Stream size                              : 319 MiB (3%)
Title                                    : / 5.1 Ch / 384 kbps / ДЗ / 1+1, 2+2
Language                                 : Ukrainian
Service kind                             : Complete Main
Default                                  : Yes
Forced                                   : Yes

Audio #2
ID                                       : 3
Format                                   :
Format/Info                              : Digital Theater Systems
Codec ID                                 : A_DTS
Duration                                 : 1 h 56 min
Bit rate mode                            : Constant
Bit rate                                 : 1 509 kb/s
Channel(s)                               : 6 channels
Channel layout                           : C L R Ls Rs LFE
Sampling rate                            : 48.0 kHz
Frame rate                               : 93.750 FPS (512 SPF)
Bit depth                                : 24 bits
Compression mode                         : Lossy
Stream size                              : 1.22 GiB (12%)
Title                                    : / 5.1 Ch / 1509 kbps / Original
Language                                 : English
Default                                  : No
Forced                                   : No

Audio #3
ID                                       : 4
Format                                   : AC-3
Format/Info                              : Audio Coding 3
Commercial name                          : Dolby Digital
Codec ID                                 : A_AC3
Duration                                 : 1 h 56 min
Bit rate mode                            : Constant
Bit rate                                 : 224 kb/s
Channel(s)                               : 2 channels
Channel layout                           : L R
Sampling rate                            : 48.0 kHz
Frame rate                               : 31.250 FPS (1536 SPF)
Compression mode                         : Lossy
Stream size                              : 186 MiB (2%)
Title                                    : / 2.0 Ch / 224 kbps / Original / Commentary
Language                                 : English
Service kind                             : Complete Main
Default                                  : No
Forced                                   : No

Text
ID                                       : 5
Format                                   : UTF-8
Codec ID                                 : S_TEXT/UTF8
Codec ID/Info                            : UTF-8 Plain Text
Duration                                 : 1 h 47 min
Bit rate                                 : 70 b/s
Count of elements                        : 1351
Stream size                              : 55.2 KiB (0%)
Title                                    : Full
Language                                 : English
Default                                  : No
Forced                                   : No

Menu
00:00:00.000                             : en:The Taking of a Terrorist (Main Titles)
00:04:32.105                             : en:Code Blue
00:07:38.791                             : en:The Cia's Interest
00:10:06.606                             : en:Follow the Money
00:15:15.164                             : en:Sharing with the Cia
00:18:37.116                             : en:The Real Deal
00:26:13.530                             : en:Turn the Heat Up
00:31:30.221                             : en:The Student Terrorist
00:35:22.537                             : en:The Guy in the Picture
00:43:58.093                             : en:The General
00:46:22.488                             : en:The Terrorist Cell
00:50:00.539                             : en:The End of the Crisis
00:53:43.720                             : en:Bodies Everywhere
00:55:24.487                             : en:City of Fear
00:58:01.478                             : en:The Terrorist in the Schoolhouse
01:00:46.434                             : en:A Plan of Attack
01:04:33.870                             : en:600 Deal
01:10:24.970                             : en:A Time of War
01:12:42.858                             : en:The Siege
01:15:55.175                             : en:Lamb to the Slaughter
01:19:14.666                             : en:Coded Red
01:21:41.313                             : en:Prisoners of War
01:24:37.989                             : en:Time to Suffer
01:29:39.624                             : en:The One Who Taught Them
01:32:02.266                             : en:It's Still Our Watch...
01:33:35.443                             : en:The Last Cell
01:39:29.046                             : en:The Terrorist Within
01:43:07.806                             : en:Prayers for the Dying
01:44:30.389                             : en:It's All Over
01:49:23.098                             : en:End Titles
01:56:05.583                             : en:01:56:05.583
Світлини




Джерело: &
Особиста оцінка: 0 - не дивився


Срібний реліз (на рейтинг впливає 50% завантаженого)
 Трекер:    Зареєстрований   

Завантажити / скачати фільм українською



відео для новачків



 Зареєстрований:   2020-07-11 00:03
 Розмір:   10.44 GB 
 Оцінка фільму:   10/10 (Голосів: 1)
   
Інші релізи
   Облога / The Siege (1998) AVC Ukr/Eng | Sub Eng staf777  3 / 0   2.18 GB   2019-04-26 09:35 
   Облога / The Siege (1998) 1080p [Hybrid, Open Matte] Ukr/Eng | Sub Eng kryk-v.ya.  3 / 0   12.61 GB   2019-04-13 22:03 
   Облога / The Siege (1998) 720p Ukr/Eng | Sub Eng staf777  0 / 0   6.68 GB   2018-03-14 17:37 
   Облога / The Siege (1998) Ukr/Eng Arsenfpu  3 / 0   2.03 GB   2017-09-20 18:06 
   Облога / The Siege (1998) 1080p Ukr/Eng | Sub Eng igor911  4 / 0   7.39 GB   2013-10-08 13:01 
   Облога / The Siege (1998) Ukr/Eng | Sub Eng _oles  2 / 0   2.18 GB   2010-11-21 14:58 
Ваш часовий пояс: GMT + 2 Години

Нова тема   Відповісти