Прокляття нефритового скорпіона / The Curse of the Jade Scorpion (2001) AVC 2xUkr/Eng | Sub Eng

Нові коментарі

Нова тема   Відповісти
Автор Повідомлення
staf777 
Відео Гуртом - підтримка та поширення
Відео Гуртом - підтримка та поширення


З нами з: 16.11.16
Востаннє: 10.08.20
Повідомлень: 3934

2020-07-10 19:23  
Прокляття нефритового скорпіона / The Curse of the Jade Scorpion (2001) AVC 2xUkr/Eng | Sub Eng

Прокляття нефритового скорпіона / The Curse of the Jade Scorpion (2001) AVC 2xUkr/Eng | Sub Eng


Жанр: комедія, кримінальний, детектив, романтичний
Країна: США, Німеччина



Кінокомпанія: DreamWorks, VCL Communications, Gravier Productions
Режисер: Вуді Аллен (Woody Allen)
Актори: Джон Тормі (John Tormey), Джон Шак (John Schuck), Вуді Аллен (Woody Allen), Елізабет Берклі (Elizabeth Berkley), Кайлі Вернофф (Kaili Vernoff), Брайан Маркінсон (Brian Markinson), Хелен Хант (Helen Hunt)...

Сюжет:
Страховий агент Бріггс терпіти не може свою начальницю. Ділова і напориста, вона намагається змінити всю систему пошуку шахраїв, якій він віддав все життя. Одного разу на вечірці в клубі «Нефритовий скорпіон», вони, ставши учасниками гіпнотичного експерименту, закохуються одне в одного.

Лише почувши потрібний пароль вони починають відчувати одне до одного неабияку пристрасть. Але безневинний на перший погляд жарт обертається добре підготовленою аферою, коли з'ясовується, що нечистий на руку гіпнотизер використовує свою владу, щоб без всіляких зусиль обкрадати заможних клієнтів. І ось починається справжній жах...


Тривалість: 01:41:43
Якість: AVC
Відео:
кодек:
розмір кадру: 1024х576
бітрейт: 3150 кб/с

Аудіо # 1:
мова: українська
переклад: багатоголосий закадровий
кодек: 2.0
бітрейт: 192 кб/с
озвучено: Цікава Ідея
ролі озвучили: Семен Птаха, Мар'яна Янкевич, Євген Малуха, Юля Малахова, Олексій Сафін, Олександр Чернов, Олекса Мельник та Матвій Ніколаєв

Аудіо # 2:
мова: українська
переклад: багатоголосий закадровий
кодек: 2.0
бітрейт: 192 кб/с
озвучено: Так Треба Продакшн на замовлення Інт Вест Дистрибушн
запис звуку з каналу: ТВ4 Тернопіль

Аудіо # 3:
мова: англійська
переклад: оригінал
кодек: 2.0
бітрейт: 192 кб/с

Субтитри:
мова: англійська
тип: програмні (м'які)
формат: *.srt
MI
General
Unique ID : 313818112131186745224740865289933453110 (0xEC172B802B3DC6EF1737A1E75A067736)
Complete name : Z:\Фільми AVC\Комедія\The Curse of the Jade Scorpion (2001) AVC [2xUKR_ENG] [Hurtom].
Format :
Format version : Version 4
File size : 2.65 GiB
Duration : 1 h 41 min
Overall bit rate : 3 729 kb/s
Movie name : Прокляття нефритового скорпіона / The Curse of the Jade Scorpion (2001) AVC [2xUKR_ENG] [Hurtom]
Encoded date : UTC 2020-07-10 17:24:42
Writing application : v46.0.0 ('No Deeper Escape') 64-bit
Writing library : libebml v1.3.10 + v1.5.2
Attachments : The Curse of the Jade Scorpion (2001) [2xUkr.TSikava Ideya_TTP_Eng_sub Eng] 720p [Hurtom] by urij546724.png

Video
ID : 1
Format : AVC
Format/Info : Advanced Video Codec
Format profile : [email protected]
Format settings : CABAC / 8 Ref Frames
Format settings, CABAC : Yes
Format settings, Reference : 8 frames
Codec ID : V_MPEG4/ISO/AVC
Duration : 1 h 41 min
Bit rate : 3 150 kb/s
Width : 1 024 pixels
Height : 576 pixels
Display aspect ratio : 16:9
Frame rate mode : Constant
Frame rate : 24.000 FPS
Color space : YUV
Chroma subsampling : 4:2:0
Bit depth : 8 bits
Scan type : Progressive
Bits/(Pixel*Frame) : 0.223
Stream size : 2.24 GiB (84%)
Writing library : core 115 r1937 aa21558
Encoding settings : cabac=1 / ref=8 / deblock=1:-3:-3 / analyse=0x3:0x113 / me=umh / subme=8 / psy=1 / psy_rd=1.00:0.10 / mixed_ref=0 / me_range=32 / chroma_me=1 / trellis=2 / 8x8dct=1 / cqm=0 / deadzone=21,11 / fast_pskip=1 / chroma_qp_offset=-3 / threads=6 / sliced_threads=0 / nr=0 / decimate=1 / interlaced=0 / bluray_compat=0 / constrained_intra=0 / bframes=8 / b_pyramid=2 / b_adapt=2 / b_bias=0 / direct=3 / weightb=1 / open_gop=0 / weightp=0 / keyint=240 / keyint_min=23 / scenecut=40 / intra_refresh=0 / rc_lookahead=30 / rc=2pass / mbtree=1 / bitrate=3150 / ratetol=1.0 / qcomp=0.60 / qpmin=15 / qpmax=47 / qpstep=3 / cplxblur=20.0 / qblur=0.5 / ip_ratio=1.40 / aq=1:1.10
Language : English
Default : Yes
Forced : No

Audio #1
ID : 2
Format : AC-3
Format/Info : Audio Coding 3
Commercial name : Dolby Digital
Codec ID : A_AC3
Duration : 1 h 41 min
Bit rate mode : Constant
Bit rate : 192 kb/s
Channel(s) : 2 channels
Channel layout : L R
Sampling rate : 48.0 kHz
Frame rate : 31.250 FPS (1536 SPF)
Compression mode : Lossy
Stream size : 140 MiB (5%)
Title : Українська доріжка. Озвучено Цікава ідея
Language : Ukrainian
Service kind : Complete Main
Default : Yes
Forced : Yes

Audio #2
ID : 3
Format : AC-3
Format/Info : Audio Coding 3
Commercial name : Dolby Digital
Codec ID : A_AC3
Duration : 1 h 41 min
Bit rate mode : Constant
Bit rate : 192 kb/s
Channel(s) : 1 channel
Channel layout : C
Sampling rate : 48.0 kHz
Frame rate : 31.250 FPS (1536 SPF)
Compression mode : Lossy
Stream size : 140 MiB (5%)
Title : Українська доріжка. Озвучено Так Треба Продакшн
Language : Ukrainian
Service kind : Complete Main
Default : No
Forced : No

Audio #3
ID : 4
Format : AC-3
Format/Info : Audio Coding 3
Commercial name : Dolby Digital
Codec ID : A_AC3
Duration : 1 h 41 min
Bit rate mode : Constant
Bit rate : 192 kb/s
Channel(s) : 2 channels
Channel layout : L R
Sampling rate : 48.0 kHz
Frame rate : 31.250 FPS (1536 SPF)
Compression mode : Lossy
Stream size : 140 MiB (5%)
Title : Оригінальна доріжка
Language : English
Service kind : Complete Main
Default : No
Forced : No

Text
ID : 5
Format : UTF-8
Codec ID : S_TEXT/UTF8
Codec ID/Info : UTF-8 Plain Text
Duration : 1 h 36 min
Bit rate : 109 b/s
Count of elements : 1585
Stream size : 77.5 KiB (0%)
Title : Англійські субтитри
Language : English
Default : No
Forced : No

Menu
00:00:00.000 : en:Main Title
00:02:00.000 : en:Investigator: Cw Briggs
00:12:32.416 : en:The Efficient: Betty Ann Fitzgerald
00:22:14.250 : en:Clearing the Air
00:33:50.833 : en:The Office Tryst
00:42:18.666 : en:Hypnotized By the Jade Scorpion
00:53:24.041 : en:The Kensington Heist
01:03:48.125 : en:Femme Fatale: Laura Kensington
01:14:12.791 : en:"It's An Inside Job"
01:21:28.625 : en:Cw Gives Laura the Boot
01:29:34.250 : en:Bringing in the Private Eyes
01:39:17.000 : en:The Prime Suspect


Подяка:

1. Творчому об'єднанню Цікава Ідея за озвучення фільму і створення релізів.
2. Пану urij546724 за запис звуку для доріжки №2 та синхрон.
Джерело:


Авторський реліз (завантажувати можна без реєстрації)
 Трекер:    Зареєстрований   

Завантажити / скачати фільм українською



відео для новачків



 Зареєстрований:   2020-07-10 20:37
 Розмір:   2.65 GB 
 Оцінка фільму:   7.8/10 (Голосів: 8)
   
bot 
робот


З нами з: 30.09.07
Востаннє: 26.05.05
Повідомлень: 25217

2020-07-10 19:23  
Тему перенесено з Фільми до форуму Анонси релізів


staf777

bot 
робот


З нами з: 30.09.07
Востаннє: 26.05.05
Повідомлень: 25217

2020-07-10 20:37  
Тему перенесено з Анонси релізів до форуму Фільми


staf777

Ваш часовий пояс: GMT + 2 Години

Нова тема   Відповісти