Перлина Нілу / The Jewel of the Nile (1985) 1080p 2xUkr/Eng | Sub Ukr/Eng

Нові коментарі

Нова тема   Відповісти
Автор Повідомлення
Anonymous 







2020-07-09 21:13  
Перлина Нілу / The Jewel of the Nile (1985) 1080p 2xUkr/Eng | Sub Ukr/Eng

Перлина Нілу / The Jewel of the Nile (1985) 1080p 2xUkr/Eng | Sub Ukr/Eng


Жанр: пригодницький, екшн, комедія
Країна: США



Кінокомпанія: 20th Century Fox
Режисер: Льюїс Тіг
Актори: Майкл Дуґлас, Кетлін Тернер, Денні ДеВіто, Спірос Фокас, Евнер Айзенберг, Пол Девід Маджид

Сюжет:
Герої попередньої частини Джек і Джоан живуть спокійним, розміреним життям багатих нероб. У них є все, що можуть дозволити гроші: яхта, вілли, прислуга. Але їм нудно. Нудно один з одним, і з цим суспільством. Що б розважити себе, Джоан приймає запрошення арабського шейха відвідати його східну резиденцію. Але казка обернулася кошмаром, арабський красень викрадає Джоан, і вимагає викуп - «перлину». Джек, заручившись підтримкою, свого нового партнера Ральфа, приймає непросте рішення, врятувати Джоан. Але є одне ускладнення, Джеку хоче помститися старий напарник.


Тривалість: 01:45:55
Якість: 1080p
Відео:
кодек:
розмір кадру: 1920х816
бітрейт: 14.0 Mб/с

Аудіо # 1:
мова: українська
переклад: двоголосий закадровий ,
кодек: 2.0
бітрейт: 192 кб/с

Аудіо # 2:
мова: українська
переклад: двоголосий закадровий
кодек: 2.0
бітрейт: 192 кб/с

Аудіо # 3:
мова: англійська
переклад: оригінал
кодек: 5.1
бітрейт: 448 кб/с

Субтитри:
мова: українська
тип: програмні (м'які)
формат: *.srt

Субтитри:
мова: англійська
тип: програмні (м'які)
формат: *.srt
Info
General
Unique ID : 185669974170699839690344857653144769563 (0x8BAEBC7E58B851E9B65EE4254EACD41B)
Complete name : E:\Toloka\2020\The Jewel of the Nile (1985) 1080p.
Format :
Format version : Version 4
File size : 11.0 GiB
Duration : 1 h 45 min
Overall bit rate : 14.8 Mb/s
Encoded date : UTC 2020-07-09 18:02:43
Writing application : v6.1.0 ('Old Devil') built on Mar 4 2013 09:10:42
Writing library : libebml v1.3.0 + v1.4.0

Video
ID : 1
Format : AVC
Format/Info : Advanced Video Codec
Format profile : [email protected]
Format settings : CABAC / 4 Ref Frames
Format settings, CABAC : Yes
Format settings, Reference : 4 frames
Codec ID : V_MPEG4/ISO/AVC
Duration : 1 h 45 min
Bit rate : 14.0 Mb/s
Width : 1 920 pixels
Height : 816 pixels
Display aspect ratio : 2.35:1
Frame rate mode : Constant
Frame rate : 23.976 FPS
Color space : YUV
Chroma subsampling : 4:2:0
Bit depth : 8 bits
Scan type : Progressive
Bits/(Pixel*Frame) : 0.373
Stream size : 10.1 GiB (92%)
Writing library : core 125 r2208 d9d2288
Encoding settings : cabac=1 / ref=5 / deblock=1:-1:-1 / analyse=0x3:0x133 / me=umh / subme=11 / psy=1 / psy_rd=1.25:0.30 / mixed_ref=1 / me_range=32 / chroma_me=1 / trellis=2 / 8x8dct=1 / cqm=0 / deadzone=21,11 / fast_pskip=0 / chroma_qp_offset=-4 / threads=12 / lookahead_threads=2 / sliced_threads=0 / nr=0 / decimate=1 / interlaced=0 / bluray_compat=0 / constrained_intra=0 / bframes=12 / b_pyramid=1 / b_adapt=2 / b_bias=0 / direct=3 / weightb=1 / open_gop=0 / weightp=2 / keyint=250 / keyint_min=23 / scenecut=40 / intra_refresh=0 / rc_lookahead=50 / rc=2pass / mbtree=1 / bitrate=14000 / ratetol=1.0 / qcomp=0.60 / qpmin=0 / qpmax=69 / qpstep=4 / cplxblur=20.0 / qblur=0.5 / ip_ratio=1.40 / aq=1:1.00
Language : English
Default : Yes
Forced : No
Duration_Source : General_Duration

Audio #1
ID : 2
Format : AC-3
Format/Info : Audio Coding 3
Commercial name : Dolby Digital
Codec ID : A_AC3
Duration : 1 h 45 min
Bit rate mode : Constant
Bit rate : 192 kb/s
Channel(s) : 2 channels
Channel layout : L R
Sampling rate : 48.0 kHz
Frame rate : 31.250 FPS (1536 SPF)
Compression mode : Lossy
Stream size : 145 MiB (1%)
Title : UKR (TET, 1+1)
Language : Ukrainian
Service kind : Complete Main
Default : Yes
Forced : Yes
Duration_Source : General_Duration

Audio #2
ID : 3
Format : AC-3
Format/Info : Audio Coding 3
Commercial name : Dolby Digital
Codec ID : A_AC3
Duration : 1 h 45 min
Bit rate mode : Constant
Bit rate : 192 kb/s
Channel(s) : 2 channels
Channel layout : L R
Sampling rate : 48.0 kHz
Frame rate : 31.250 FPS (1536 SPF)
Compression mode : Lossy
Stream size : 145 MiB (1%)
Title : UKR (Новий)
Language : Uighur
Service kind : Complete Main
Default : No
Forced : No
Duration_Source : General_Duration

Audio #3
ID : 4
Format : AC-3
Format/Info : Audio Coding 3
Commercial name : Dolby Digital
Codec ID : A_AC3
Duration : 1 h 45 min
Bit rate mode : Constant
Bit rate : 448 kb/s
Channel(s) : 6 channels
Channel layout : L R C LFE Ls Rs
Sampling rate : 48.0 kHz
Frame rate : 31.250 FPS (1536 SPF)
Compression mode : Lossy
Stream size : 339 MiB (3%)
Title : ENG
Language : English
Service kind : Complete Main
Default : No
Forced : No
Duration_Source : General_Duration

Text #1
ID : 5
Format : UTF-8
Codec ID : S_TEXT/UTF8
Codec ID/Info : UTF-8 Plain Text
Title : UKR R5
Language : Ukrainian
Default : No
Forced : No

Text #2
ID : 6
Format : UTF-8
Codec ID : S_TEXT/UTF8
Codec ID/Info : UTF-8 Plain Text
Title : ENG
Language : English
Default : No
Forced : No

Menu
00:00:00.000 : en:Chapter 01
00:03:45.433 : en:Chapter 02
00:08:13.659 : en:Chapter 03
00:11:28.521 : en:Chapter 04
00:16:02.544 : en:Chapter 05
00:19:47.394 : en:Chapter 06
00:23:47.759 : en:Chapter 07
00:24:49.279 : en:Chapter 08
00:26:57.907 : en:Chapter 09
00:30:26.866 : en:Chapter 10
00:37:09.352 : en:Chapter 11
00:44:07.144 : en:Chapter 12
00:52:43.994 : en:Chapter 13
00:57:07.757 : en:Chapter 14
01:02:13.563 : en:Chapter 15
01:08:39.782 : en:Chapter 16
01:10:45.157 : en:Chapter 17
01:13:48.090 : en:Chapter 18
01:16:12.401 : en:Chapter 19
01:23:52.736 : en:Chapter 20
01:26:17.422 : en:Chapter 21
01:29:53.554 : en:Chapter 22
01:34:08.684 : en:Chapter 23
01:40:50.335 : en:Chapter 24
01:45:48.091 : en:Chapter 25
Скріншоти




За субтитри дякую пану w2958l
За постер дякую пану realNitro
За доріжки подяка п.: slavik_v_z, Bohdan237, xSlim, Arsenfpu
Особиста подяка пану denixx за надану матеріальну допомогу на підтримку цього і майбутніх релізів.
Джерело:


Срібний реліз (на рейтинг впливає 50% завантаженого)
 Трекер:    Зареєстрований   

Завантажити / скачати фільм українською



відео для новачків



 Зареєстрований:   2020-07-09 21:13
 Розмір:   10.98 GB 
 Оцінка фільму:   10/10 (Голосів: 5)
   
Інші релізи
Ваш часовий пояс: GMT + 2 Години

Нова тема   Відповісти