Кубок України 2019-2020 / Фінал + Нагородження / Динамо (Київ) - Ворскла (Полтава) / UA Перший HD (08.07.2020) 720p

Нові коментарі

Нова тема   Відповісти
Останній раз роздавалося antik_2008 (2020-09-20)
Автор Повідомлення
Anonymous 







2020-07-09 20:10  
Кубок України 2019-2020 / Фінал + Нагородження / Динамо (Київ) - Ворскла (Полтава) / UA Перший HD (08.07.2020) 720p


Кубок України 2019-2020 / Фінал + Нагородження / Динамо (Київ) - Ворскла (Полтава) / UA Перший HD (08.07.2020) 720p

Телеканал: UA Перший HD
Коментатор: Вадим Шелякін, Роберто Моралес

Опис:
Фінал кубку України 2019-2020 Динамо (Київ) - Ворскла (Полтава)


Якість: 720p

Відео: кодек: розмір кадру: 1280 x 720 бітрейт: 4735 кб/с
Аудіо: мова: українська кодек: 2.0 бітрейт: 128 кб/с
Тривалість:
02:52:53
Скріншоти:


Склад команд:


Про файл:
General
Complete name : Ukraine_Cup_2019-20_FINAL_Dynamo_Kyiv_vs_Vorskla_08.07.2020.HDTVRip_720p.50_UKR.
Format :
Format version : Version 4
File size : 5.99 GiB
Duration : 2 h 52 min
Overall bit rate : 4 961 kb/s
Writing application : VideoReDo (Lavf56.25.101)
Writing library : VideoReDo (Lavf56.25.101)

Video
ID : 1
Format : AVC
Format/Info : Advanced Video Codec
Format profile : [email protected]
Format settings : CABAC / 4 Ref Frames
Format settings, CABAC : Yes
Format settings, RefFrames : 4 frames
Codec ID : V_MPEG4/ISO/AVC
Duration : 2 h 52 min
Bit rate : 4 735 kb/s
Width : 1 280 pixels
Height : 720 pixels
Display aspect ratio : 16:9
Frame rate mode : Constant
Frame rate : 50.000 FPS
Color space : YUV
Chroma subsampling : 4:2:0
Bit depth : 8 bits
Scan type : Progressive
Bits/(Pixel*Frame) : 0.103
Stream size : 5.72 GiB (95%)
Default : No
Forced : No

Audio
ID : 2
Format : AC-3
Format/Info : Audio Coding 3
Commercial name : Dolby Digital
Codec ID : A_AC3
Duration : 2 h 52 min
Bit rate mode : Constant
Bit rate : 128 kb/s
Channel(s) : 2 channels
Channel layout : L R
Sampling rate : 48.0 kHz
Frame rate : 31.250 FPS (1536 SPF)
Bit depth : 16 bits
Compression mode : Lossy
Stream size : 158 MiB (3%)
Language : English
Service kind : Complete Main
Default : Yes
Forced : No
Подяка за допомогу у створенні релізу : rgfootball
Особиста оцінка: 8 - мені сподобалося


Золотий реліз (завантажене не впливає на рейтинг)
 Трекер:    Зареєстрований   

Завантажити / скачати торрент



відео для новачків



 Зареєстрований:   2020-07-09 20:10
 Розмір:   5.99 GB 
 Оцінка:   9.5/10 (Голосів: 2)
   
Ваш часовий пояс: GMT + 2 Години

Нова тема   Відповісти