Осінь у Нью-Йорку / Autumn in New York (2000) 1080p 2xUkr/Eng | Sub Eng

Нові коментарі

Нова тема   Відповісти
Автор Повідомлення
staf777 
Відео Гуртом - підтримка та поширення
Відео Гуртом - підтримка та поширення


З нами з: 16.11.16
Востаннє: 29.09.20
Повідомлень: 4073

2020-07-09 11:52  
Осінь у Нью-Йорку / Autumn in New York (2000) 1080p 2xUkr/Eng | Sub Eng

Осінь у Нью-Йорку / Autumn in New York (2000) 1080p 2xUkr/Eng | Sub Eng

Жанр: драма
Країна: США



Кінокомпанія: Lakeshore Entertainment
Режисер: Джоен Чен / Joan Chen
Актори: Річард Ґір / Richard Gere, Вайнона Райдер / Winona Ryder, Ентоні ЛаПал'я / Anthony LaPaglia, Ільйен Стрітч / Elaine Stritch, Віра Фарміга / Vera Farmiga, Шеррі Стрінгфілд / Sherry Stringfield, Джилл Хеннессі / Jill Hennessy, Дж.К. Сіммонс / J.K. Simmons, Сем Траммелл / Sam Trammell, Мері Бет Херт / Mary Beth Hurt

Сюжет:
Вілл Кейн - власник модного ресторану в Нью-Йорку. Плейбой і майстер швидкоплинних інтрижок. Після знайомства з Шарлоттою Філдінг несподівано опиняється в стані, близькому до сум'яття. Шарлотта вдвічі молодша за нього. Вона жадає перепробувати всі принади "дорослого" життя - і на це у неї є дуже вагома причина. Вілл дозволяє собі захопитися Шарлоттою. Вважаючи, що це буде ще один короткий і ні до чого не зобов'язуючий зв'язок. Однак незабаром всі уявлення Вілла про жінок будуть зруйновані, бо справжня любов - пристрасна, п'янка, змітає на своєму шляху всі перепони - змінює все...


Тривалість: 01:45:48
Якість: 1080p
Відео:
кодек:
розмір кадру: 1920x1040
бітрейт: 9834 кб/с

Аудіо # 1:
мова: українська
переклад: багатоголосий закадровий , ,
кодек: 2.0
бітрейт: 192 кб/с

Аудіо # 2:
мова: українська
переклад: багатоголосий закадровий
кодек: 2.0
бітрейт: 192 кб/с

Аудіо # 3:
мова: англійська
переклад: оригінал
кодек: 5.1
бітрейт: 448 кб/с

Субтитри:
мова: англійська
тип: програмні (м'які)
формат: *.srt
Скріншоти
Info
Код:

General
Unique ID                   : 118213011649796353584191950178587508348 (0x58EEFF761038BE9159BFF064FC07FE7C)
Complete name               : Z:\Фільми в HD\Драма\Autumn in New York (2000) 1080p [2xUKR_ENG] [Hurtom].
Format                      :
Format version              : Version 4
File size                   : 7.88 GiB
Duration                    : 1 h 45 min
Overall bit rate            : 10.7 Mb/s
Movie name                  : Осінь у Нью-Йорку / Autumn in New York (2000) 1080p [2xUKR_ENG] [Hurtom]
Encoded date                : UTC 2020-07-10 08:01:08
Writing application         : v46.0.0 ('No Deeper Escape') 64-bit
Writing library             : libebml v1.3.10 + v1.5.2
Cover                       : Yes
Attachments                 : cover.jpg

Video
ID                          : 1
Format                      : AVC
Format/Info                 : Advanced Video Codec
Format profile              : [email protected]
Format settings             : CABAC / 4 Ref Frames
Format settings, CABAC      : Yes
Format settings, Reference  : 4 frames
Codec ID                    : V_MPEG4/ISO/AVC
Duration                    : 1 h 45 min
Bit rate                    : 9 834 kb/s
Width                       : 1 920 pixels
Height                      : 1 040 pixels
Display aspect ratio        : 1.85:1
Frame rate mode             : Constant
Frame rate                  : 23.976 (24000/1001) FPS
Color space                 : YUV
Chroma subsampling          : 4:2:0
Bit depth                   : 8 bits
Scan type                   : Progressive
Bits/(Pixel*Frame)          : 0.205
Stream size                 : 7.26 GiB (92%)
Writing library             : core 135 r2345kMod f0c1c53
Encoding settings           : cabac=1 / ref=4 / deblock=1:-2:-2 / analyse=0x3:0x113 / me=umh / subme=10 / psy=1 / fade_compensate=0.00 / psy_rd=0.95:0.00 / mixed_ref=1 / me_range=32 / chroma_me=1 / trellis=2 / 8x8dct=1 / cqm=0 / deadzone=21,11 / fast_pskip=0 / chroma_qp_offset=-2 / threads=6 / lookahead_threads=1 / sliced_threads=0 / nr=0 / decimate=1 / interlaced=0 / bluray_compat=0 / constrained_intra=0 / bframes=8 / b_pyramid=2 / b_adapt=2 / b_bias=0 / direct=3 / weightb=1 / open_gop=0 / weightp=2 / keyint=250 / keyint_min=23 / scenecut=40 / intra_refresh=0 / rc_lookahead=40 / rc=2pass / mbtree=0 / bitrate=9834 / ratetol=1.0 / qcomp=0.75 / qpmin=0 / qpmax=69 / qpstep=4 / cplxblur=20.0 / qblur=0.5 / vbv_maxrate=50000 / vbv_bufsize=62500 / nal_hrd=none / ip_ratio=1.40 / pb_ratio=1.30 / aq=1:0.80
Language                    : English
Default                     : Yes
Forced                      : No
Color range                 : Limited
Matrix coefficients         : BT.709

Audio #1
ID                          : 2
Format                      : AC-3
Format/Info                 : Audio Coding 3
Commercial name             : Dolby Digital
Codec ID                    : A_AC3
Duration                    : 1 h 45 min
Bit rate mode               : Constant
Bit rate                    : 192 kb/s
Channel(s)                  : 2 channels
Channel layout              : L R
Sampling rate               : 48.0 kHz
Frame rate                  : 31.250 FPS (1536 SPF)
Compression mode            : Lossy
Stream size                 : 145 MiB (2%)
Title                       : MVO [K1], 2.0 192 Kbps
Language                    : Ukrainian
Service kind                : Complete Main
Default                     : Yes
Forced                      : Yes

Audio #2
ID                          : 3
Format                      : AC-3
Format/Info                 : Audio Coding 3
Commercial name             : Dolby Digital
Codec ID                    : A_AC3
Duration                    : 1 h 45 min
Bit rate mode               : Constant
Bit rate                    : 192 kb/s
Channel(s)                  : 2 channels
Channel layout              : L R
Sampling rate               : 48.0 kHz
Frame rate                  : 31.250 FPS (1536 SPF)
Compression mode            : Lossy
Stream size                 : 145 MiB (2%)
Title                       : MVO [AMC], 2.0 [stereo] 192 Kbps
Language                    : Ukrainian
Service kind                : Complete Main
Default                     : No
Forced                      : No

Audio #3
ID                          : 4
Format                      : AC-3
Format/Info                 : Audio Coding 3
Commercial name             : Dolby Digital
Codec ID                    : A_AC3
Duration                    : 1 h 45 min
Bit rate mode               : Constant
Bit rate                    : 448 kb/s
Channel(s)                  : 6 channels
Channel layout              : L R C LFE Ls Rs
Sampling rate               : 48.0 kHz
Frame rate                  : 31.250 FPS (1536 SPF)
Compression mode            : Lossy
Stream size                 : 339 MiB (4%)
Title                       : Original, 5.1 448 kbps
Language                    : English
Service kind                : Complete Main
Default                     : No
Forced                      : No

Text
ID                          : 5
Format                      : UTF-8
Codec ID                    : S_TEXT/UTF8
Codec ID/Info               : UTF-8 Plain Text
Duration                    : 1 h 38 min
Bit rate                    : 44 b/s
Count of elements           : 861
Stream size                 : 32.1 KiB (0%)
Title                       : Full
Language                    : English
Default                     : No
Forced                      : No

Menu
00:00:00.000                : en:00:00:00.000
00:08:34.805                : en:00:08:34.805
00:11:47.748                : en:00:11:47.748
00:15:06.071                : en:00:15:06.071
00:18:46.917                : en:00:18:46.917
00:20:43.283                : en:00:20:43.283
00:27:33.485                : en:00:27:33.485
00:31:41.608                : en:00:31:41.608
00:36:16.591                : en:00:36:16.591
00:38:02.488                : en:00:38:02.488
00:42:56.282                : en:00:42:56.282
00:47:50.701                : en:00:47:50.701
00:51:23.872                : en:00:51:23.872
00:56:37.185                : en:00:56:37.185
01:02:41.966                : en:01:02:41.966
01:07:33.799                : en:01:07:33.799
01:14:09.862                : en:01:14:09.862
01:17:21.136                : en:01:17:21.136
01:23:02.602                : en:01:23:02.602
01:27:26.616                : en:01:27:26.616
01:29:55.181                : en:01:29:55.181
01:33:11.544                : en:01:33:11.544
01:37:19.375                : en:01:37:19.375
01:41:12.357                : en:01:41:12.357

над доріжками працювали: Sando7, Arsenfpu

Джерело:
Особиста оцінка: 0 - не дивився


Срібний реліз (на рейтинг впливає 50% завантаженого)
 Трекер:    Зареєстрований   

Завантажити / скачати фільм українською



відео для новачків



 Зареєстрований:   2020-07-11 10:53
 Розмір:   7.88 GB 
 Оцінка фільму:   10/10 (Голосів: 2)
   
bot 
робот


З нами з: 30.09.07
Востаннє: 26.05.05
Повідомлень: 25655

2020-07-11 10:53  
Тему перенесено з Анонси релізів до форуму Фільми в HD


staf777

Ваш часовий пояс: GMT + 2 Години

Нова тема   Відповісти