Ідеал (Сезон 1-4) / Ideal (Season 1-4) (2005-2008) Ukr/Eng

Нові коментарі

Нова тема   Відповісти
Автор Повідомлення
Цікава ідея 
VIP


З нами з: 26.12.11
Востаннє: 07.08.20
Повідомлень: 554

2020-07-08 23:10  
Ідеал (Сезон 1-4) / Ideal (Season 1-4) (2005-2008) Ukr/Eng


Ідеал (Сезон 1-4) / Ideal (Season 1-4) (2005-2008) Ukr/Eng


Жанр: чорна комедія
Країна: Велика Британія



Кінокомпанія / телеканал: BBC Comedy-North / Baby Cow Productions Ltd.
Режисери: Грем Дафф
Актори: Джонні Вегас, Нікола Рейнольдс, Джеймс Фостер, Сеймур Леон Мейс, Райан Роуп, Том Гудман-Гілл, Тоні Берджесс, Ронні Джутта, Грем Дафф, Шинед Метьюз, Бен Кромптон та інші.

Сюжет:
Моз - дрібний торговець легкими наркотиками в Салфорді, передмісті Манчестера. Вся дія відбувається в квартирі Моза, через яку проходить нескінченна низка візитерів: друг дитинства поліцейський (одночасно основний постачальник), симпатичні дівчата, яким терміново потрібно покурити, але у них немає грошей, діджей (який поки не став зіркою), прибитий хіпі, гламурний гей (до речі, він є автором сценарію і творцем ідеї серіалу) і багато інших не менш симпатичних персонажів.


Перекладено та озвучено ТО "Цікава Ідея" за підтримки fishMD



Ідеал (Сезон 1) / Ideal (Season 1) (2005) Ukr/Eng

Тривалість: 1 серія: ~ 27 хв. (цілком серій: 9)
Перелік серій:

01. The Rat
02. The Seduction
03. The Boyfriend
04. The Affair
05. The Backpacker
06. The Party
07. The Pregnancy
08. The Body
09. The Christmas Special
Якість:
Відео:
кодек:
розмір кадру: 608x352 (с. 1-8), 720x396 (с. 9)
бітрейт: ~ 1 000 кб/с

Аудіо # 1:
мова: українська | "Цікава Ідея" [Моз - Олександр Чернов]
переклад: професійний багатоголосий закадровий
кодек: 2.0
бітрейт: 192 кб/с

Аудіо # 2:
мова: українська | "Цікава Ідея" [Моз - Євген Малуха]
переклад: професійний багатоголосий закадровий
кодек: 2.0
бітрейт: 192 кб/с

Аудіо # 3:
мова: англійська
переклад: оригінал
кодек: MP3 2.0
бітрейт: 128 кб/с
Info
Код:
Format                      :
Format version              : Version 4
File size                   : 269 MiB
Duration                    : 27 min 37 s
Overall bit rate mode       : Variable
Overall bit rate            : 1 363 kb/s
Movie name                  : Ідеал / Ideal - S01E01 (2005) [Ukr.Eng] [Цікава Ідея]
Encoded date                : UTC 2020-07-08 14:52:08
Writing application         : v6.8.0 ('Theme for Great Cities') 32bit built on Mar  2 2014 21:27:07
Writing library             : libebml v1.3.0 + v1.4.1
Cover                       : Yes
Attachments                 : cover.jpg

Video
ID                          : 1
Format                      : MPEG-4 Visual
Format profile              : Advanced [email protected]
Format settings             : BVOP1 / Custom Matrix
Format settings, BVOP       : 1
Format settings, QPel       : No
Format settings, GMC        : No warppoints
Format settings, Matrix     : Custom
Codec ID                    : V_MS/VFW/FOURCC /
Codec ID/Hint               :
Duration                    : 27 min 37 s
Bit rate                    : 1 038 kb/s
Width                       : 608 pixels
Height                      : 352 pixels
Display aspect ratio        : 1.727
Frame rate mode             : Constant
Frame rate                  : 25.000 FPS
Color space                 : YUV
Chroma subsampling          : 4:2:0
Bit depth                   : 8 bits
Scan type                   : Progressive
Compression mode            : Lossy
Bits/(Pixel*Frame)          : 0.194
Stream size                 : 205 MiB (76%)
Writing library             : 1.1.0 (UTC 2005-11-22)
Default                     : Yes
Forced                      : No

Audio #1
ID                          : 2
Format                      : AC-3
Format/Info                 : Audio Coding 3
Commercial name             : Dolby Digital
Codec ID                    : A_AC3
Duration                    : 27 min 37 s
Bit rate mode               : Constant
Bit rate                    : 192 kb/s
Channel(s)                  : 2 channels
Channel layout              : L R
Sampling rate               : 48.0 kHz
Frame rate                  : 31.250 FPS (1536 SPF)
Bit depth                   : 16 bits
Compression mode            : Lossy
Stream size                 : 37.9 MiB (14%)
Title                       : Українська
Language                    : Ukrainian
Service kind                : Complete Main
Default                     : Yes
Forced                      : No

Audio #2
ID                          : 3
Format                      : MPEG Audio
Format version              : Version 1
Format profile              : Layer 3
Format settings             : Joint stereo
Codec ID                    : A_MPEG/L3
Codec ID/Hint               : MP3
Duration                    : 27 min 37 s
Bit rate mode               : Variable
Bit rate                    : 106 kb/s
Nominal bit rate            : 128 kb/s
Channel(s)                  : 2 channels
Sampling rate               : 48.0 kHz
Frame rate                  : 41.667 FPS (1152 SPF)
Compression mode            : Lossy
Stream size                 : 21.0 MiB (8%)
Writing library             : LAME3.97b
Encoding settings           : -m j -V 4 -q 2 -lowpass 17 --abr 128
Default                     : No
Forced                      : No
Скріншоти

Ідеал (Сезон 2) / Ideal (Season 2) (2006) Ukr/Eng

Тривалість: 1 серія: ~ 27 хв. (цілком серій: 8)
Перелік серій:

01. The Stag Do
02. The Landlord
03. The Hydroponics
04. The Seance
05. The Boss
06. The Guest
07. The Delivery
08. The Money
Якість:
Відео:
кодек:
розмір кадру: 720x400 (с. 1), 720x416 (с. 2-8)
бітрейт: ~ 1 200 кб/с

Аудіо # 1:
мова: українська | "Цікава Ідея" [Моз - Олександр Чернов]
переклад: професійний багатоголосий закадровий
кодек: 2.0
бітрейт: 192 кб/с

Аудіо # 2: (с. 1-4)
мова: українська | "Цікава Ідея" [Моз - Євген Малуха]
переклад: професійний багатоголосий закадровий
кодек: 2.0
бітрейт: 192 кб/с

Аудіо # 3:
мова: англійська
переклад: оригінал
кодек: MP3 2.0
бітрейт: 128 кб/с
Info
Код:
Format                      :
Format version              : Version 4
File size                   : 326 MiB
Duration                    : 28 min 15 s
Overall bit rate mode       : Variable
Overall bit rate            : 1 613 kb/s
Movie name                  : Ідеал / Ideal - S02E01 (2006) [Ukr.Eng] [Цікава Ідея]
Encoded date                : UTC 2020-07-19 20:02:56
Writing application         : v6.8.0 ('Theme for Great Cities') 32bit built on Mar  2 2014 21:27:07
Writing library             : libebml v1.3.0 + v1.4.1
Cover                       : Yes
Attachments                 : cover.jpg

Video
ID                          : 1
Format                      : MPEG-4 Visual
Format profile              : Advanced [email protected]
Format settings             : BVOP1 / Custom Matrix
Format settings, BVOP       : 1
Format settings, QPel       : No
Format settings, GMC        : No warppoints
Format settings, Matrix     : Custom
Codec ID                    : V_MS/VFW/FOURCC /
Codec ID/Hint               :
Duration                    : 28 min 15 s
Bit rate                    : 1 090 kb/s
Width                       : 720 pixels
Height                      : 400 pixels
Display aspect ratio        : 16:9
Frame rate mode             : Constant
Frame rate                  : 25.000 FPS
Color space                 : YUV
Chroma subsampling          : 4:2:0
Bit depth                   : 8 bits
Scan type                   : Progressive
Compression mode            : Lossy
Bits/(Pixel*Frame)          : 0.151
Stream size                 : 220 MiB (68%)
Writing library             : 1.2.0.dev47 (UTC 2006-11-01)
Default                     : Yes
Forced                      : No

Audio #1
ID                          : 2
Format                      : AC-3
Format/Info                 : Audio Coding 3
Commercial name             : Dolby Digital
Codec ID                    : A_AC3
Duration                    : 28 min 15 s
Bit rate mode               : Constant
Bit rate                    : 192 kb/s
Channel(s)                  : 2 channels
Channel layout              : L R
Sampling rate               : 48.0 kHz
Frame rate                  : 31.250 FPS (1536 SPF)
Bit depth                   : 16 bits
Compression mode            : Lossy
Stream size                 : 38.8 MiB (12%)
Title                       : Цікава Ідея [Моз - Олександр Чернов]
Language                    : Ukrainian
Service kind                : Complete Main
Default                     : Yes
Forced                      : No

Audio #2
ID                          : 3
Format                      : AC-3
Format/Info                 : Audio Coding 3
Commercial name             : Dolby Digital
Codec ID                    : A_AC3
Duration                    : 28 min 15 s
Bit rate mode               : Constant
Bit rate                    : 192 kb/s
Channel(s)                  : 2 channels
Channel layout              : L R
Sampling rate               : 48.0 kHz
Frame rate                  : 31.250 FPS (1536 SPF)
Bit depth                   : 16 bits
Compression mode            : Lossy
Stream size                 : 38.8 MiB (12%)
Title                       : Цікава Ідея [Моз - Євген Малуха]
Language                    : Ukrainian
Service kind                : Complete Main
Default                     : No
Forced                      : No

Audio #3
ID                          : 4
Format                      : MPEG Audio
Format version              : Version 1
Format profile              : Layer 3
Format settings             : Joint stereo
Codec ID                    : A_MPEG/L3
Codec ID/Hint               : MP3
Duration                    : 28 min 15 s
Bit rate mode               : Variable
Bit rate                    : 107 kb/s
Nominal bit rate            : 128 kb/s
Channel(s)                  : 2 channels
Sampling rate               : 48.0 kHz
Frame rate                  : 41.667 FPS (1152 SPF)
Compression mode            : Lossy
Stream size                 : 21.6 MiB (7%)
Title                       : Original
Writing library             : LAME3.97
Encoding settings           : -m j -V 4 -q 2 -lowpass 17 --abr 128
Language                    : English
Default                     : No
Forced                      : No
Скріншоти

Ідеал (Сезон 3) / Ideal (Season 3) (2007) Ukr/Eng

Тривалість: 1 серія: ~ 27 хв. (цілком серій: 8)
Перелік серій:

01. The Night
02. The Christians
03. The Pyramid
04. The Nest
05. The Bath
06. The Set-Up
07. The Crabs
08. The Wedding
Якість:
Відео:
кодек:
розмір кадру: 640x352
бітрейт: ~ 1 000 кб/с

Аудіо # 1:
мова: українська | "Цікава Ідея"
переклад: професійний багатоголосий закадровий
кодек: 2.0
бітрейт: 192 кб/с

Аудіо # 2:
мова: англійська
переклад: оригінал
кодек: MP3 2.0
бітрейт: 128 кб/с
Info
Код:
Format                      :
Format version              : Version 4
File size                   : 270 MiB
Duration                    : 28 min 13 s
Overall bit rate mode       : Variable
Overall bit rate            : 1 338 kb/s
Movie name                  : Ідеал / Ideal - S03E01 (2007) [Ukr.Eng] [Цікава Ідея]
Encoded date                : UTC 2020-07-22 18:49:58
Writing application         : v6.8.0 ('Theme for Great Cities') 32bit built on Mar  2 2014 21:27:07
Writing library             : libebml v1.3.0 + v1.4.1
Cover                       : Yes
Attachments                 : cover.jpg

Video
ID                          : 1
Format                      : MPEG-4 Visual
Format profile              : Advanced [email protected]
Format settings             : BVOP2
Format settings, BVOP       : 2
Format settings, QPel       : No
Format settings, GMC        : No warppoints
Format settings, Matrix     : Default (H.263)
Muxing mode                 : Packed bitstream
Codec ID                    : V_MS/VFW/FOURCC /
Codec ID/Hint               :
Duration                    : 28 min 13 s
Bit rate                    : 991 kb/s
Width                       : 640 pixels
Height                      : 352 pixels
Display aspect ratio        : 16:9
Frame rate mode             : Constant
Frame rate                  : 25.000 FPS
Color space                 : YUV
Chroma subsampling          : 4:2:0
Bit depth                   : 8 bits
Scan type                   : Progressive
Compression mode            : Lossy
Bits/(Pixel*Frame)          : 0.176
Stream size                 : 200 MiB (74%)
Writing library             : 1.2.0SMP (UTC 2006-01-08)
Default                     : Yes
Forced                      : No

Audio #1
ID                          : 2
Format                      : AC-3
Format/Info                 : Audio Coding 3
Commercial name             : Dolby Digital
Codec ID                    : A_AC3
Duration                    : 28 min 13 s
Bit rate mode               : Constant
Bit rate                    : 192 kb/s
Channel(s)                  : 2 channels
Channel layout              : L R
Sampling rate               : 48.0 kHz
Frame rate                  : 31.250 FPS (1536 SPF)
Bit depth                   : 16 bits
Compression mode            : Lossy
Stream size                 : 38.8 MiB (14%)
Title                       : Цікава Ідея
Language                    : Ukrainian
Service kind                : Complete Main
Default                     : Yes
Forced                      : No

Audio #2
ID                          : 3
Format                      : MPEG Audio
Format version              : Version 1
Format profile              : Layer 3
Format settings             : Joint stereo / MS Stereo
Codec ID                    : A_MPEG/L3
Codec ID/Hint               : MP3
Duration                    : 28 min 58 s
Bit rate mode               : Variable
Bit rate                    : 128 kb/s
Channel(s)                  : 2 channels
Sampling rate               : 48.0 kHz
Frame rate                  : 41.667 FPS (1152 SPF)
Compression mode            : Lossy
Stream size                 : 26.5 MiB (10%)
Title                       : Original
Writing library             : LAME3.90.
Encoding settings           : -m j -V 4 -q 2 -lowpass 17.6 --abr 128
Language                    : English
Default                     : No
Forced                      : No
Скріншоти

Ідеал (Сезон 4) / Ideal (Season 4) (2008) Ukr/Eng

Тривалість: 1 серія: ~ 27 хв. (цілком серій: 8)
Перелік серій:

01. The Pains
02. The Past
03. The Vodka
04. The Secret
05. The War
06. The Birthday
07. The Television
08. The Future
Якість:
Відео:
кодек:
розмір кадру: 640x368
бітрейт: ~ 900 кб/с

Аудіо # 1:
мова: українська | "Цікава Ідея"
переклад: професійний багатоголосий закадровий
кодек: 2.0
бітрейт: 192 кб/с

Аудіо # 2:
мова: англійська
переклад: оригінал
кодек: MP3 2.0
бітрейт: 128 кб/с
Info
Код:
Format                      :
Format version              : Version 4
File size                   : 270 MiB
Duration                    : 28 min 22 s
Overall bit rate mode       : Variable
Overall bit rate            : 1 333 kb/s
Movie name                  : Ідеал / Ideal - S04E01 (2008) [Ukr.Eng] [Цікава Ідея]
Encoded date                : UTC 2020-08-03 13:25:45
Writing application         : v6.8.0 ('Theme for Great Cities') 32bit built on Mar  2 2014 21:27:07
Writing library             : libebml v1.3.0 + v1.4.1
Cover                       : Yes
Attachments                 : cover.jpg

Video
ID                          : 1
Format                      : MPEG-4 Visual
Format profile              : Advanced [email protected]
Format settings             : BVOP2
Format settings, BVOP       : 2
Format settings, QPel       : No
Format settings, GMC        : No warppoints
Format settings, Matrix     : Default (H.263)
Muxing mode                 : Packed bitstream
Codec ID                    : V_MS/VFW/FOURCC /
Codec ID/Hint               :
Duration                    : 28 min 22 s
Bit rate                    : 993 kb/s
Width                       : 640 pixels
Height                      : 368 pixels
Display aspect ratio        : 1.739
Frame rate mode             : Constant
Frame rate                  : 25.000 FPS
Color space                 : YUV
Chroma subsampling          : 4:2:0
Bit depth                   : 8 bits
Scan type                   : Progressive
Compression mode            : Lossy
Bits/(Pixel*Frame)          : 0.169
Stream size                 : 201 MiB (74%)
Writing library             : 1.2.1 (UTC 2008-12-04)
Default                     : Yes
Forced                      : No

Audio #1
ID                          : 2
Format                      : AC-3
Format/Info                 : Audio Coding 3
Commercial name             : Dolby Digital
Codec ID                    : A_AC3
Duration                    : 28 min 22 s
Bit rate mode               : Constant
Bit rate                    : 192 kb/s
Channel(s)                  : 2 channels
Channel layout              : L R
Sampling rate               : 48.0 kHz
Frame rate                  : 31.250 FPS (1536 SPF)
Bit depth                   : 16 bits
Compression mode            : Lossy
Stream size                 : 39.0 MiB (14%)
Title                       : Цікава Ідея
Language                    : Ukrainian
Service kind                : Complete Main
Default                     : Yes
Forced                      : No

Audio #2
ID                          : 3
Format                      : MPEG Audio
Format version              : Version 1
Format profile              : Layer 3
Format settings             : Joint stereo / MS Stereo
Codec ID                    : A_MPEG/L3
Codec ID/Hint               : MP3
Duration                    : 28 min 22 s
Bit rate mode               : Variable
Bit rate                    : 122 kb/s
Nominal bit rate            : 128 kb/s
Channel(s)                  : 2 channels
Sampling rate               : 48.0 kHz
Frame rate                  : 41.667 FPS (1152 SPF)
Compression mode            : Lossy
Stream size                 : 24.7 MiB (9%)
Title                       : Original
Writing library             : LAME3.98r
Encoding settings           : -m j -V 4 -q 2 -lowpass 17 --abr 128
Language                    : English
Default                     : No
Forced                      : No
Скріншоти



Озвучено творчим об'єднанням:
Переклад: Федір Сидорук.
Ролі озвучили: Олександр Чернов, Семен Птаха, Юлія Малахова, Ольга Мотрич, Євген Малуха та Олексій Сафін.


Авторський реліз (завантажувати можна без реєстрації)
 Трекер:    Зареєстрований   

Завантажити / скачати серіал українською



відео для новачків



 Зареєстрований:   2020-08-04 21:55
 Розмір:   9.38 GB 
 Оцінка серіалу:   9.2/10 (Голосів: 31)
   
1barrabas1 
Новенький


З нами з: 20.03.15
Востаннє: 05.08.20
Повідомлень: 3

2020-07-10 20:00  
Бомба,для тих хто в темі. гарний переклад.
slammajamma 
Новенький


З нами з: 11.01.16
Востаннє: 07.08.20
Повідомлень: 10

2020-07-12 22:07  
Таке ТРЕБА дивитися.
rev123 
Свій


З нами з: 05.04.13
Востаннє: 08.08.20
Повідомлень: 68

2020-07-13 02:56  
...і багато іншого збруду з дна електорату лейбористів)
istoruk 
Свій


З нами з: 12.04.09
Востаннє: 06.08.20
Повідомлень: 143

2020-07-18 18:36  
Чи буде озвучення інших сезонів?
Цікава ідея 
VIP


З нами з: 26.12.11
Востаннє: 07.08.20
Повідомлень: 554

2020-07-18 19:13  
istoruk написано:
Чи буде озвучення інших сезонів?

Так.

Цікава ідея 
VIP


З нами з: 26.12.11
Востаннє: 07.08.20
Повідомлень: 554

2020-07-18 22:59  
Прохання перезавантажити 1й сезон!
[змінено голос Моза]


Бажаємо всім приємного перегляду!

tilda4334 
VIP


З нами з: 15.08.14
Востаннє: 08.08.20
Повідомлень: 990

2020-07-18 23:41  
Цікава ідея написано:
змінено голос Моза]

шкода( Малуха круто озвучив.

П.С. Серіал і переклад топ, дякую)

leicheman 
Відео Гуртом - фільмокрай
Відео Гуртом - фільмокрай


З нами з: 03.07.14
Востаннє: 08.08.20
Повідомлень: 5235

2020-07-19 21:06  
tilda4334 написано:
шкода( Малуха круто озвучив

там дві доріжки у серіалі, можна обрати чий голос більше сподобався)

tilda4334 
VIP


З нами з: 15.08.14
Востаннє: 08.08.20
Повідомлень: 990

2020-07-19 23:22  
leicheman написано:
там дві доріжки у серіалі, можна обрати чий голос більше сподобався)

О, добре, що залишили можливість вибору)
Але в наступних сезонах, я так підозрюю такого вибору вже не буде(

Цікава ідея 
VIP


З нами з: 26.12.11
Востаннє: 07.08.20
Повідомлень: 554

2020-07-20 22:14  
Перекладено та озвучено 2-й сезон!


Бажаємо всім приємного перегляду!

Цікава ідея 
VIP


З нами з: 26.12.11
Востаннє: 07.08.20
Повідомлень: 554

2020-07-25 20:03  
Перекладено та озвучено 3-й сезон!


Бажаємо всім приємного перегляду!

1barrabas1 
Новенький


З нами з: 20.03.15
Востаннє: 05.08.20
Повідомлень: 3

2020-08-02 22:36  
Вибачте, а наступні сезони будуть?
Цікава ідея 
VIP


З нами з: 26.12.11
Востаннє: 07.08.20
Повідомлень: 554

2020-08-02 22:38  
1barrabas1 написано:
Вибачте, а наступні сезони будуть?

Будуть.

1barrabas1 
Новенький


З нами з: 20.03.15
Востаннє: 05.08.20
Повідомлень: 3

2020-08-03 19:11  
Цікава ідея
Клас!

Цікава ідея 
VIP


З нами з: 26.12.11
Востаннє: 07.08.20
Повідомлень: 554

2020-08-04 21:55  
Переклали та озвучили 4-й сезон!


Бажаємо всім приємного перегляду!

sent2k20 
Новенький


З нами з: 27.04.20
Востаннє: 07.08.20
Повідомлень: 10

2020-08-05 18:34  
Рідко пишу. Але молю, викладіть 5 сезон якомога швидше.
Джен вижила?

Цікава ідея 
VIP


З нами з: 26.12.11
Востаннє: 07.08.20
Повідомлень: 554

2020-08-05 18:45  
sent2k20 написано:
Рідко пишу. Але молю, викладіть 5 сезон якомога швидше.

До вихідних буде.

Ваш часовий пояс: GMT + 2 Години

Нова тема   Відповісти