Блакитна ігуана / Blue Iguana (2018) 720p Ukr/Eng | Sub Eng

Нові коментарі

Нова тема   Відповісти
Автор Повідомлення
staf777 
Відео Гуртом - підтримка та поширення
Відео Гуртом - підтримка та поширення


З нами з: 16.11.16
Востаннє: 21.01.21
Повідомлень: 4814

2020-07-08 18:02  
Блакитна ігуана / Blue Iguana (2018) 720p Ukr/Eng | Sub Eng

Блакитна ігуана / Blue Iguana (2018) 720p Ukr/Eng | Sub Eng


Жанр: екшн, комедія, кримінальний
Країна: Велика Британія



Кінокомпанія: UK Film Studio Productions
Режисер: Хаді Хаджейг / Hadi Hajaig
Актори: Сем Роквелл / Sam Rockwell, Фібі Фокс / Phoebe Fox, Бен Шварц / Ben Schwartz, Пітер Фердінандо / Peter Ferdinando, Пітер Полікарпа / Peter Polycarpou, Ел Вівер / Al Weaver, Робін Хелліер / Robin Hellier, Саймон Келлоу / Simon Callow, Мартін Манкастер / Martin Muncaster, Аманда Донохью / Amanda Donohoe, Френсіс Барбер / Frances Barber

Сюжет:
Едді і Пол працюють в закусочній, де знаходяться за умовами умовно-дострокового звільнення. Однак зав'язувати з кримінальним минулим приятелі не збираються. Черговим їх замовником стає британка Кетрін. Вона вмовляє Едді і Пола взятися за одну справу в Лондоні, де потрібно перехопити у кур'єра рюкзак з цінним вантажем. Приятелі погоджуються, але під час завдання все йде не за планом і з'являються жертви. А пізніше їх підставляє сама Кетрін, коли в справу втручається Дікон Бредшоу і його люди. Як виявляється, всі вони працюють на якогось бізнесмена Аркадія, який і затіяв цю авантюру. Участь же Кетрін обумовлено величезним боргом перед ним, і дівчина намагається якомога швидше розплатитися. Але її надії не виправдовуються, і вона все ще зобов'язана Аркадію. Тому Кетрін знову звертається до Едді і Полу з пропозицією обікрасти свого боса ...


Тривалість: 01:41:09
Якість:
Відео:
кодек:
розмір кадру: 1280x536
бітрейт: 6000 кб/с

Аудіо # 1:
мова: українська
переклад: багатоголосий закадровий
кодек: 2.0
бітрейт: 192 кб/с

Аудіо # 2:
мова: англійська
переклад: оригінал
кодек: 5.1
бітрейт: 640 кб/с

Субтитри:
мова: англійська
тип: програмні (м'які)
формат: *.srt
Info
General
Unique ID : 287374064301312613687120139501428326343 (0xD8323B480744EE486150907EBC9CBFC7)
Complete name : Z:\Фільми в HD\Комедія\Blue Iguana (2018) 720p [UKR_ENG] [Hurtom].
Format :
Format version : Version 4
File size : 4.83 GiB
Duration : 1 h 41 min
Overall bit rate : 6 832 kb/s
Movie name : Блакитна ігуана / Blue Iguana (2018) 720p [UKR_ENG] [Hurtom]
Encoded date : UTC 2020-07-09 06:48:34
Writing application : v46.0.0 ('No Deeper Escape') 64-bit
Writing library : libebml v1.3.10 + v1.5.2
Cover : Yes
Attachments : cover.jpg

Video
ID : 1
Format : AVC
Format/Info : Advanced Video Codec
Format profile : [email protected]
Format settings : CABAC / 12 Ref Frames
Format settings, CABAC : Yes
Format settings, Reference : 12 frames
Codec ID : V_MPEG4/ISO/AVC
Duration : 1 h 41 min
Bit rate : 6 000 kb/s
Width : 1 280 pixels
Height : 536 pixels
Display aspect ratio : 2.40:1
Frame rate mode : Constant
Frame rate : 23.976 (24000/1001) FPS
Color space : YUV
Chroma subsampling : 4:2:0
Bit depth : 8 bits
Scan type : Progressive
Bits/(Pixel*Frame) : 0.365
Stream size : 4.24 GiB (88%)
Title : selezen
Writing library : core 148 r2705kMod 3f5ed56
Encoding settings : cabac=1 / ref=12 / deblock=1:-2:-2 / analyse=0x3:0x133 / me=umh / subme=11 / psy=1 / fade_compensate=0.00 / psy_rd=1.05:0.05 / mixed_ref=1 / me_range=32 / chroma_me=1 / trellis=2 / 8x8dct=1 / cqm=0 / deadzone=21,11 / fast_pskip=0 / chroma_qp_offset=-3 / threads=12 / lookahead_threads=2 / sliced_threads=0 / nr=0 / decimate=0 / interlaced=0 / bluray_compat=0 / constrained_intra=0 / fgo=0 / bframes=8 / b_pyramid=2 / b_adapt=2 / b_bias=0 / direct=3 / weightb=1 / open_gop=0 / weightp=2 / keyint=240 / keyint_min=23 / scenecut=40 / intra_refresh=0 / rc_lookahead=50 / rc=2pass / mbtree=0 / bitrate=6000 / ratetol=1.0 / qcomp=0.60 / qpmin=0 / qpmax=51 / qpstep=4 / cplxblur=20.0 / qblur=0.5 / vbv_maxrate=50000 / vbv_bufsize=62500 / nal_hrd=none / filler=0 / ip_ratio=1.40 / pb_ratio=1.30 / aq=3:0.80
Language : English
Default : Yes
Forced : No

Audio #1
ID : 2
Format : AC-3
Format/Info : Audio Coding 3
Commercial name : Dolby Digital
Codec ID : A_AC3
Duration : 1 h 41 min
Bit rate mode : Constant
Bit rate : 192 kb/s
Channel(s) : 2 channels
Channel layout : L R
Sampling rate : 48.0 kHz
Frame rate : 31.250 FPS (1536 SPF)
Compression mode : Lossy
Stream size : 139 MiB (3%)
Title : MVO [NTN], 2.0 [stereo] 192 Kbps
Language : Ukrainian
Service kind : Complete Main
Default : Yes
Forced : Yes

Audio #2
ID : 3
Format : AC-3
Format/Info : Audio Coding 3
Commercial name : Dolby Digital
Codec ID : A_AC3
Duration : 1 h 41 min
Bit rate mode : Constant
Bit rate : 640 kb/s
Channel(s) : 6 channels
Channel layout : L R C LFE Ls Rs
Sampling rate : 48.0 kHz
Frame rate : 31.250 FPS (1536 SPF)
Compression mode : Lossy
Stream size : 463 MiB (9%)
Title : Original
Language : English
Service kind : Complete Main
Default : No
Forced : No

Text
ID : 4
Format : UTF-8
Codec ID : S_TEXT/UTF8
Codec ID/Info : UTF-8 Plain Text
Duration : 1 h 36 min
Bit rate : 69 b/s
Count of elements : 1659
Stream size : 48.9 KiB (0%)
Title : Full
Language : English
Default : No
Forced : No

Menu
00:00:00.000 : :Глава 01
00:14:04.802 : :Глава 02
00:28:22.409 : :Глава 03
00:42:19.704 : :Глава 04
00:55:31.286 : :Глава 05
01:08:18.303 : :Глава 06
01:21:13.243 : :Глава 07
01:38:31.239 : :Глава 08
Скріншоти
Над доріжкою працювали: Bohdan237, Sando7
Джерело:


 Трекер:    Зареєстрований   

Завантажити / скачати фільм українською



відео для новачків



 Зареєстрований:   2020-07-09 09:11
 Розмір:   4.83 GB 
 Оцінка фільму:   9.3/10 (Голосів: 6)
   
Інші релізи
   Блакитна ігуана / Blue Iguana (2018) 1080p Ukr/Eng | Sub Eng staf777  1 / 0   10.12 GB   2020-07-09 09:30 
   Блакитна ігуана / Blue Iguana (2018) AVC Ukr/Eng | Sub Eng Maters  7 / 0   1.83 GB   2020-06-19 20:54 
   Блакитна ігуана / Blue Iguana (2018) Arsenfpu  3 / 0   1.33 GB   2020-06-14 20:52 
bot 
робот


З нами з: 30.09.07
Востаннє: 26.05.05
Повідомлень: 26946

2020-07-09 09:11  
Тему перенесено з Анонси релізів до форуму Фільми в HD


staf777

Ваш часовий пояс: GMT + 2 Години

Нова тема   Відповісти