Один день / One Day (2011) 720p 4xUkr/Eng | Sub Eng

Нові коментарі

Нова тема   Відповісти
Автор Повідомлення
staf777 
Відео Гуртом - підтримка та поширення
Відео Гуртом - підтримка та поширення


З нами з: 16.11.16
Востаннє: 29.09.20
Повідомлень: 4069

2020-07-08 17:21  
Один день / One Day (2011) 720p 4xUkr/Eng | Sub Eng

Один день / One Day (2011) 720p 4xUkr/Eng | Sub Eng


Жанр: драма, романтичний , мелодрама
Країна: США



Кінокомпанія: Color Force, Film Four, Random House Films
Режисер: Лоне Шерфіґ / Lone Scherfig
Актори: Ен Гетевей / Anne Hathaway, Джим Старджес / Jim Sturgess, Том Місон / Tom Mison, Джолі Віттакер / Jodie Whittaker, Тім Кі / Tim Key та інші.

Сюжет:
Емма - романтична, гостра на язик і хоче змінити світ на краще. Декстер - плейбой, улюбленець долі і хоче, щоб світ належав йому. Вперше Ем і Декс зустрілися 15 липня на випускному в коледжі і провели разом лише один день. А потім прийшла ніч, і вони... вирішили залишитися друзями. Вони будуть зустрічатися в той же день через рік, через два. Але скільки років має пройти, щоб вони повірили в свою любов і зрозуміли, як багато значив для них цей ОДИН ДЕНЬ?


Тривалість: 01:47:28
Якість:
Відео:
кодек:
розмір кадру: 1 280 x 544
бітрейт: 5 368 кб/с

Аудіо # 1:
мова: українська
переклад: багатоголосий закадровий
кодек: 5.1
бітрейт: 448 кб/с

Аудіо # 2:
мова: українська
переклад: багатоголосий закадровий
кодек: 2.0
бітрейт: 192 кб/с

Аудіо # 3:
мова: українська
переклад: багатоголосий закадровий
кодек: 2.0
бітрейт: 192 кб/с

Аудіо # 4:
мова: українська
переклад: багатоголосий закадровий
кодек: 2.0
бітрейт: 192 кб/с

Аудіо # 5:
мова: англійська
переклад: оригінал
кодек: 5.1
бітрейт: 448 кб/с

Субтитри:
мова: англійська
тип: програмні (м'які)
формат: *.srt
Info
General
Unique ID : 128519240799752181539280030211932414280 (0x60AFE7CA2B75136D8243C4295B47E148)
Complete name : Z:\Фільми в HD\Драма\One Day (2011) 720p [4xUKR_ENG] [Hurtom].
Format :
Format version : Version 4
File size : 5.14 GiB
Duration : 1 h 47 min
Overall bit rate mode : Variable
Overall bit rate : 6 842 kb/s
Movie name : Один день / One Day (2011) 720p [4xUKR_ENG] [Hurtom]
Encoded date : UTC 2020-07-08 16:12:27
Writing application : v46.0.0 ('No Deeper Escape') 64-bit
Writing library : libebml v1.3.10 + v1.5.2
Cover : Yes
Attachments : cover.jpg

Video
ID : 1
Format : AVC
Format/Info : Advanced Video Codec
Format profile : [email protected]
Format settings : CABAC / 6 Ref Frames
Format settings, CABAC : Yes
Format settings, Reference : 6 frames
Codec ID : V_MPEG4/ISO/AVC
Duration : 1 h 47 min
Bit rate mode : Variable
Bit rate : 5 368 kb/s
Width : 1 280 pixels
Height : 544 pixels
Display aspect ratio : 2.35:1
Frame rate mode : Constant
Frame rate : 23.976 (24000/1001) FPS
Color space : YUV
Chroma subsampling : 4:2:0
Bit depth : 8 bits
Scan type : Progressive
Bits/(Pixel*Frame) : 0.322
Stream size : 4.03 GiB (78%)
Title : Encoded by GYN
Default : Yes
Forced : No

Audio #1
ID : 2
Format : AC-3
Format/Info : Audio Coding 3
Commercial name : Dolby Digital
Codec ID : A_AC3
Duration : 1 h 47 min
Bit rate mode : Constant
Bit rate : 448 kb/s
Channel(s) : 6 channels
Channel layout : L R C LFE Ls Rs
Sampling rate : 48.0 kHz
Frame rate : 31.250 FPS (1536 SPF)
Compression mode : Lossy
Stream size : 344 MiB (7%)
Title : MVO [DVD], 5.1 448 kbps
Language : Ukrainian
Service kind : Complete Main
Default : Yes
Forced : Yes

Audio #2
ID : 3
Format : AC-3
Format/Info : Audio Coding 3
Commercial name : Dolby Digital
Codec ID : A_AC3
Duration : 1 h 47 min
Bit rate mode : Constant
Bit rate : 192 kb/s
Channel(s) : 2 channels
Channel layout : L R
Sampling rate : 48.0 kHz
Frame rate : 31.250 FPS (1536 SPF)
Compression mode : Lossy
Stream size : 147 MiB (3%)
Title : MVO [Volia CINE+], 2.0 [stereo] 192 Kbps
Language : Ukrainian
Service kind : Complete Main
Default : No
Forced : No

Audio #3
ID : 4
Format : AC-3
Format/Info : Audio Coding 3
Commercial name : Dolby Digital
Codec ID : A_AC3
Duration : 1 h 47 min
Bit rate mode : Constant
Bit rate : 192 kb/s
Channel(s) : 2 channels
Channel layout : L R
Sampling rate : 48.0 kHz
Frame rate : 31.250 FPS (1536 SPF)
Compression mode : Lossy
Stream size : 148 MiB (3%)
Title : MVO [TET], 2.0 192 Kbps
Language : Ukrainian
Service kind : Complete Main
Default : No
Forced : No

Audio #4
ID : 5
Format : AC-3
Format/Info : Audio Coding 3
Commercial name : Dolby Digital
Codec ID : A_AC3
Duration : 1 h 47 min
Bit rate mode : Constant
Bit rate : 192 kb/s
Channel(s) : 2 channels
Channel layout : L R
Sampling rate : 48.0 kHz
Frame rate : 31.250 FPS (1536 SPF)
Compression mode : Lossy
Stream size : 148 MiB (3%)
Title : MVO [K1], 2.0 192 Kbps
Language : Ukrainian
Service kind : Complete Main
Default : No
Forced : No

Audio #5
ID : 6
Format : AC-3
Format/Info : Audio Coding 3
Commercial name : Dolby Digital
Codec ID : A_AC3
Duration : 1 h 47 min
Bit rate mode : Constant
Bit rate : 448 kb/s
Channel(s) : 6 channels
Channel layout : L R C LFE Ls Rs
Sampling rate : 48.0 kHz
Frame rate : 31.250 FPS (1536 SPF)
Compression mode : Lossy
Stream size : 344 MiB (7%)
Title : Original, 5.1 448 kbps
Language : English
Service kind : Complete Main
Default : No
Forced : No

Text
ID : 7
Format : UTF-8
Codec ID : S_TEXT/UTF8
Codec ID/Info : UTF-8 Plain Text
Duration : 1 h 37 min
Bit rate : 64 b/s
Count of elements : 1506
Stream size : 46.3 KiB (0%)
Title : Full
Language : English
Default : No
Forced : No

Menu
00:00:00.000 : en:Chapter 1
00:03:22.952 : en:Chapter 2
00:09:12.677 : en:Chapter 3
00:12:23.868 : en:Chapter 4
00:16:40.290 : en:Chapter 5
00:21:08.517 : en:Chapter 6
00:29:21.676 : en:Chapter 7
00:37:08.726 : en:Chapter 8
00:46:03.177 : en:Chapter 9
00:52:39.906 : en:Chapter 10
00:59:43.413 : en:Chapter 11
01:05:04.483 : en:Chapter 12
01:08:07.583 : en:Chapter 13
01:12:29.636 : en:Chapter 14
01:20:02.631 : en:Chapter 15
01:25:39.716 : en:Chapter 16
01:27:39.879 : en:Chapter 17
01:31:25.813 : en:Chapter 18
01:36:55.600 : en:Chapter 19
01:41:09.521 : en:Chapter 20
Скріншоти
За звук дякую п. Sando7, РОМЕО, Vasua95, Arsenfpu
Джерело:


 Трекер:    Зареєстрований   

Завантажити / скачати фільм українською



відео для новачків



 Зареєстрований:   2020-07-08 19:24
 Розмір:   5.14 GB 
 Оцінка фільму:   10/10 (Голосів: 3)
   
Інші релізи
   Один день / One Day (2011) AVC 4xUkr/Eng | Sub Eng Maters  7 / 0   2.62 GB   2020-06-21 15:18 
   Один день / One Day (2011) mini 1080p 3xUkr/Eng | Sub Eng ukr_anonymous  3 / 0   4.26 GB   2018-06-15 14:47 
   Один день / One Day (2011) 3xUkr/Eng Arsenfpu  2 / 0   2.29 GB   2016-05-19 22:26 
   Один день / One Day (2011) 720p 2xUkr/Eng | Sub Eng Dim-ON  1 / 0   6.12 GB   2013-11-30 00:02 
bot 
робот


З нами з: 30.09.07
Востаннє: 26.05.05
Повідомлень: 25647

2020-07-08 17:21  
Тему перенесено з Фільми в HD до форуму Анонси релізів


staf777

bot 
робот


З нами з: 30.09.07
Востаннє: 26.05.05
Повідомлень: 25647

2020-07-08 19:24  
Тему перенесено з Анонси релізів до форуму Фільми в HD


staf777

Ваш часовий пояс: GMT + 2 Години

Нова тема   Відповісти