Чужі гроші / Other People's Money (1991) 1080p Ukr/Eng | Sub Eng

Нові коментарі

Нова тема   Відповісти
Автор Повідомлення
Anonymous 







2020-07-08 14:04  
Чужі гроші / Other People's Money (1991) 1080p Ukr/Eng | Sub Eng

Чужі гроші / Other People's Money (1991) 1080p Ukr/Eng | Sub Eng


Жанр: комедія, драма, романтичний
Країна: США



Кінокомпанія: Warner Bros. Pictures
Режисер: Норман Джуісон
Актори: Денні ДеВіто, Пенелопа Енн Міллер, Грегорі Пек, Пайпер Лорі, Дін Джонс

Сюжет:
Акула Уолл-стріта Лоуренс Гарфілд на прізвисько Ларрі-ліквідатор, відомий завдяки тим компаніям, які він розвалив. Він займається виключно власним збагаченням за рахунок інших. Його чергова мета — корпорація, якою володіє вісімдесятирічний патріарх Йоргенсон. Щоб протистояти підступному Гарфілду, старий наймає не менш підступного юриста.


Тривалість: 01:40:52
Якість: 1080p
Відео:
кодек:
розмір кадру: 1920x1080
бітрейт: 11.7 Mб/с

Аудіо # 1:
мова: українська
переклад: двоголосий закадровий
кодек: 2.0
бітрейт: 192 кб/с

Аудіо # 2:
мова: англійська
переклад: оригінал
кодек: E-AC-3 2.0
бітрейт: 224 кб/с

Субтитри:
мова: англійська
тип: програмні (м'які)
формат: *.srt
Info
General
Unique ID : 199813967992735917573973366581321624404 (0x9652C53AAA325CAAA91B3BF1C0DD6B54)
Complete name : E:\Toloka\2020\Other People's Money (1991) 1080p.
Format :
Format version : Version 4
File size : 8.74 GiB
Duration : 1 h 40 min
Overall bit rate mode : Variable
Overall bit rate : 12.4 Mb/s
Encoded date : UTC 2020-07-08 10:59:26
Writing application : v6.1.0 ('Old Devil') built on Mar 4 2013 09:10:42
Writing library : libebml v1.3.0 + v1.4.0

Video
ID : 1
Format : AVC
Format/Info : Advanced Video Codec
Format profile : [email protected]
Format settings : CABAC / 4 Ref Frames
Format settings, CABAC : Yes
Format settings, Reference : 4 frames
Codec ID : V_MPEG4/ISO/AVC
Duration : 1 h 40 min
Bit rate mode : Variable
Bit rate : 11.7 Mb/s
Maximum bit rate : 15.0 Mb/s
Width : 1 920 pixels
Height : 1 080 pixels
Display aspect ratio : 16:9
Frame rate mode : Constant
Frame rate : 23.976 (24000/1001) FPS
Color space : YUV
Chroma subsampling : 4:2:0
Bit depth : 8 bits
Scan type : Progressive
Bits/(Pixel*Frame) : 0.236
Stream size : 8.27 GiB (95%)
Title : Other People's Money bB006T2LBSIB b1080pB
Writing library : core 148 r2623 d5b2374
Encoding settings : cabac=1 / ref=4 / deblock=1:-1:-1 / analyse=0x3:0x133 / me=umh / subme=9 / psy=1 / psy_rd=1.00:0.15 / mixed_ref=1 / me_range=24 / chroma_me=1 / trellis=2 / 8x8dct=1 / cqm=0 / deadzone=21,11 / fast_pskip=1 / chroma_qp_offset=-3 / threads=34 / lookahead_threads=5 / sliced_threads=0 / nr=150 / decimate=1 / interlaced=0 / bluray_compat=0 / constrained_intra=0 / bframes=8 / b_pyramid=2 / b_adapt=2 / b_bias=0 / direct=3 / weightb=1 / open_gop=0 / weightp=2 / keyint=120 / keyint_min=61 / scenecut=0 / intra_refresh=0 / rc_lookahead=120 / rc=crf / mbtree=1 / crf=18.0 / qcomp=0.60 / qpmin=0 / qpmax=69 / qpstep=4 / vbv_maxrate=15000 / vbv_bufsize=31250 / crf_max=0.0 / nal_hrd=vbr / filler=0 / ip_ratio=1.40 / aq=3:1.00
Default : Yes
Forced : No
Color range : Limited
Color primaries : BT.709
Transfer characteristics : BT.709
Matrix coefficients : BT.709
Statistics Tags Issue : v7.9.0 ('Birds') 32bit 2016-09-11 01:53:06 / v6.1.0 ('Old Devil') built on Mar 4 2013 09:10:42 2020-07-08 10:59:26
FromStats_BitRate : 11985815
FromStats_Duration : 01:40:52.004000000
FromStats_FrameCount : 145103
FromStats_StreamSize : 9067275126
Duration_Source : General_Duration

Audio #1
ID : 2
Format : AC-3
Format/Info : Audio Coding 3
Commercial name : Dolby Digital
Codec ID : A_AC3
Duration : 1 h 40 min
Bit rate mode : Constant
Bit rate : 192 kb/s
Channel(s) : 2 channels
Channel layout : L R
Sampling rate : 48.0 kHz
Frame rate : 31.250 FPS (1536 SPF)
Compression mode : Lossy
Stream size : 139 MiB (2%)
Title : UKR (Новий)
Language : Ukrainian
Service kind : Complete Main
Default : Yes
Forced : Yes
Duration_Source : General_Duration

Audio #2
ID : 3
Format : E-AC-3
Format/Info : Enhanced AC-3
Commercial name : Dolby Digital Plus
Codec ID : A_EAC3
Duration : 1 h 40 min
Bit rate mode : Constant
Bit rate : 224 kb/s
Channel(s) : 2 channels
Channel layout : L R
Sampling rate : 48.0 kHz
Frame rate : 31.250 FPS (1536 SPF)
Compression mode : Lossy
Stream size : 162 MiB (2%)
Title : English
Language : English
Service kind : Complete Main
Default : No
Forced : No
Statistics Tags Issue : v7.9.0 ('Birds') 32bit 2016-09-11 01:53:06 / v6.1.0 ('Old Devil') built on Mar 4 2013 09:10:42 2020-07-08 10:59:26
FromStats_BitRate : 224000
FromStats_Duration : 01:40:51.968000000
FromStats_FrameCount : 189124
FromStats_StreamSize : 169455104
Duration_Source : General_Duration

Text
ID : 4
Format : UTF-8
Codec ID : S_TEXT/UTF8
Codec ID/Info : UTF-8 Plain Text
Title : English
Language : English
Default : No
Forced : No
Statistics Tags Issue : v7.9.0 ('Birds') 32bit 2016-09-11 01:53:06 / v6.1.0 ('Old Devil') built on Mar 4 2013 09:10:42 2020-07-08 10:59:26
FromStats_BitRate : 66
FromStats_Duration : 01:38:00.241000000
FromStats_FrameCount : 1850
FromStats_StreamSize : 49179
Скріншоти








За доріжку подяка п.: NemoInFire, MAKAPOHHIK
Особиста подяка пану denixx за надану матеріальну допомогу на підтримку цього і майбутніх релізів.
Джерело:


Срібний реліз (на рейтинг впливає 50% завантаженого)
 Трекер:    Зареєстрований   

Завантажити / скачати фільм українською



відео для новачків



 Зареєстрований:   2020-07-08 14:04
 Розмір:   8.74 GB 
 Оцінка фільму:   9.8/10 (Голосів: 4)
   
Інші релізи
   Чужі гроші / Other People's Money (1991) NemoInFire  7 / 0   1.31 GB   2011-09-12 14:31 
Ваш часовий пояс: GMT + 2 Години

Нова тема   Відповісти