Один божевільний день / Paz! (2002) -AVC Ukr/Ita | sub Ita/Eng

Нові коментарі

Нова тема   Відповісти
Автор Повідомлення
urij546724 
Відео Гуртом - фільмокрай
Відео Гуртом - фільмокрай


З нами з: 16.03.10
Востаннє: 04.08.20
Повідомлень: 5691

2020-07-07 18:45  
Один божевільний день / Paz! (2002) -AVC Ukr/Ita | sub Ita/Eng



Жанр: комедія
Країна: Італія



Кіностудія / кінокомпанія: Tangram Film, Rai Cinema, Stream
Режисер: Ренато Де Марія (Renato De Maria)
Актори: Флавіо Пістіллі (Flavio Pistilli), Кріштіано Каллегаро (Cristiano Callegaro), Маттео Таранто (Matteo Taranto), Фабриція Саккі (Fabrizia Sacchi), Клаудіо Сантамарія (Claudio Santamaria), Франческо Мастроріллі (Francesco Mastrorilli), Лоренцо Бурландо (Lorenzo Burlando)...

Сюжет:
1970-ті, італійське місто Болонья. Група студентів живе в одній квартирі. Фільм розповідає про 24 години з їхнього життя, наповнених марихуаною, навчанням, дівчатами і політикою.


Тривалість: 01:41:36
Якість: -AVC
Відео:
кодек:
розмір кадру: 712 х 384
бітрейт: 1598 кб/с
частота кадрів: 25 к/с (fps)

Аудіо #1:
мова: українська
переклад: двоголосий закадровий
кодек: 2.0
бітрейт: 192 кб/с
озвучено: Медіа Дім Рава
запис звуку з каналу: ТВ4 Тернопіль
деталі озвучення: перекладач: Наталя Морванюк; звукорежисер: Сергій Мовчанівський; текст читали актори: Оксана Стешенко та Дмитро Коркін

Аудіо #2:
мова: італійська
переклад: оригінал
кодек: 5.1
бітрейт: 448 кб/с

Субтитри:
мова: італійська
тип: програмні (м'які)
формат: *.vob

Субтитри:
мова: англійська
тип: програмні (м'які)
формат: *.vob
Media info:
General
Unique ID : 339627268621601335111931281975925393810 (0xFF81D529004FDE139AAB0C60897DC992)
Format :
Format version : Version 4
File size : 1.59 GiB
Duration : 1 h 41 min
Overall bit rate : 2 243 kb/s
Movie name : Paz! (2002) [ukr.MediaDimRava_eng_sub ita.eng] -AVC [Hurtom] by urij546724
Encoded date : UTC 2020-07-06 16:49:53
Writing application : v48.0.0 ('Fortress Around Your Heart') 64-bit
Writing library : libebml v1.4.0 + v1.6.0
Attachments : Paz! (2002) [ukr.MediaDimRava_eng_sub ukr.eng] -AVC [Hurtom] by urij546724.jpg

Video
ID : 1
Format : AVC
Format/Info : Advanced Video Codec
Format profile : [email protected]
Format settings : CABAC / 4 Ref Frames
Format settings, CABAC : Yes
Format settings, Reference : 4 frames
Codec ID : V_MPEG4/ISO/AVC
Duration : 1 h 41 min
Bit rate : 1 598 kb/s
Width : 712 pixels
Height : 384 pixels
Display aspect ratio : 1.85:1
Frame rate mode : Constant
Frame rate : 25.000 FPS
Color space : YUV
Chroma subsampling : 4:2:0
Bit depth : 8 bits
Scan type : Progressive
Bits/(Pixel*Frame) : 0.234
Stream size : 1.13 GiB (71%)
Title : Paz! (2002) -AVC [Hurtom] by urij546724
Writing library : core 138 r2358 9e941d1
Encoding settings : cabac=1 / ref=4 / deblock=1:-2:-1 / analyse=0x3:0x113 / me=umh / subme=10 / psy=1 / psy_rd=1.00:0.00 / mixed_ref=1 / me_range=32 / chroma_me=1 / trellis=2 / 8x8dct=1 / cqm=0 / deadzone=21,11 / fast_pskip=0 / chroma_qp_offset=-2 / threads=12 / lookahead_threads=1 / sliced_threads=0 / nr=0 / decimate=1 / interlaced=0 / bluray_compat=0 / constrained_intra=0 / bframes=4 / b_pyramid=2 / b_adapt=2 / b_bias=0 / direct=3 / weightb=1 / open_gop=0 / weightp=2 / keyint=250 / keyint_min=25 / scenecut=40 / intra_refresh=0 / rc_lookahead=60 / rc=2pass / mbtree=1 / bitrate=1598 / ratetol=1.0 / qcomp=0.60 / qpmin=0 / qpmax=69 / qpstep=3 / cplxblur=20.0 / qblur=0.5 / vbv_maxrate=50000 / vbv_bufsize=50000 / nal_hrd=none / ip_ratio=1.40 / aq=1:1.00
Language : Italian
Default : Yes
Forced : No

Audio #1
ID : 2
Format : AC-3
Format/Info : Audio Coding 3
Commercial name : Dolby Digital
Codec ID : A_AC3
Duration : 1 h 41 min
Bit rate mode : Constant
Bit rate : 192 kb/s
Channel(s) : 2 channels
Channel layout : L R
Sampling rate : 48.0 kHz
Frame rate : 31.250 FPS (1536 SPF)
Compression mode : Lossy
Stream size : 140 MiB (9%)
Title : Українська доріжка
Language : Ukrainian
Service kind : Complete Main
Default : Yes
Forced : Yes

Audio #2
ID : 3
Format : AC-3
Format/Info : Audio Coding 3
Commercial name : Dolby Digital
Codec ID : A_AC3
Duration : 1 h 41 min
Bit rate mode : Constant
Bit rate : 448 kb/s
Channel(s) : 6 channels
Channel layout : L R C LFE Ls Rs
Sampling rate : 48.0 kHz
Frame rate : 31.250 FPS (1536 SPF)
Compression mode : Lossy
Delay relative to video : 100 ms
Stream size : 326 MiB (20%)
Title : Оригінальеа доріжка
Language : Italian
Service kind : Complete Main
Default : No
Forced : No

Text #1
ID : 4
Format : VobSub
Muxing mode : zlib
Codec ID : S_VOBSUB
Codec ID/Info : Picture based subtitle format used on DVDs
Duration : 1 h 35 min
Bit rate : 2 518 b/s
Count of elements : 870
Stream size : 1.73 MiB (0%)
Title : Італійські субтитри
Language : Italian
Default : No
Forced : No

Text #2
ID : 5
Format : VobSub
Muxing mode : zlib
Codec ID : S_VOBSUB
Codec ID/Info : Picture based subtitle format used on DVDs
Duration : 1 h 35 min
Bit rate : 2 218 b/s
Count of elements : 874
Stream size : 1.52 MiB (0%)
Title : Англійські субтитри
Language : English
Default : No
Forced : No

Menu
00:00:00.000 : it:PENTOTHAL
00:05:28.480 : it:FIABESCHI
00:07:02.320 : it:ZANARDI
00:12:52.440 : it:IN CLASSE
00:17:26.680 : it:RISVEGLI
00:24:56.720 : it:QUESTO NO!
00:31:17.520 : it:LA BATTAGLIA
00:38:18.760 : it:SOGNI
00:45:17.600 : it:GLI ESAMI
00:52:57.080 : it:L'ORGIA
01:12:44.920 : it:AMATEMI!
01:16:54.400 : it:LA MACCHINA E LE SBARBE
01:20:14.080 : it:IL RICATTO
01:24:38.680 : it:IL 1° DELLA CLASSE
01:28:39.760 : it:EPILOGO
01:36:55.760 : it:TITOLI DI CODA
Скріншоти:





Трейлер:
Семпл:
Джерело 1_________Джерело 2_________Джерело 3_________Джерело 4_________Джерело 5
У випадку, якщо з усіх джерел семпл видалять, прохання повідомити мені у ПРИВАТ


Подяка:

1. Пану urij546724 за запис звуку з ТБ.
2. Пану drop_plz за пошук відео.


Реліз створено:


Срібний реліз (на рейтинг впливає 50% завантаженого)
 Трекер:    Зареєстрований   

Завантажити / скачати фільм українською



відео для новачків



 Зареєстрований:   2020-07-07 18:45
 Розмір:   1.59 GB 
 Оцінка фільму:   7.5/10 (Голосів: 4)
 Прохання не тікати з роздачі і залишати коментарі.
   
Radiowave 
Новенький


З нами з: 08.08.17
Востаннє: 05.08.20
Повідомлень: 1

2020-07-10 14:08  
Рідкісне лайно. Де там комедія, теж не помітив.
Ваш часовий пояс: GMT + 2 Години

Нова тема   Відповісти