Танці при повному місяці / Dancing at the Harvest Moon (2002)

Нові коментарі

Нова тема   Відповісти
Автор Повідомлення
urij546724 
Відео Гуртом - фільмокрай
Відео Гуртом - фільмокрай


З нами з: 16.03.10
Востаннє: 04.08.20
Повідомлень: 5691

2020-07-07 18:42  
Танці при повному місяці / Dancing at the Harvest Moon (2002)



Жанр: драма, романтичний
Країна: США



Кіностудія / кінокомпанія: Bayonne Entertainment, McFarlane Productions, Sony Pictures Television
Режисер: Боббі Роз (Bobby Roth)
Актори: Жаклін Біссет (Jacqueline Bisset), Ерік Мабіус (Eric Mabius), Сюзен Анспач (Susan Anspach), Нан Мартін (Nan Martin), Євген Рош (Eugene Roche), Нік Манкузо (Nick Mancuso), Кармен Аргенціано (Carmen Argenziano)...

Сюжет:
Щоб впоратися з потрясінням, Меггі взяла відпустку на рік і поїхала на Ведмеже озеро. У цьому місці багато років тому вона пережила найщасливішу пору свого життя з коханим чоловіком на ім'я Патрік Флемінг. Життя розлучило їх. З того часу вони більше не бачилися.


Тривалість: 01:24:33
Якість:
Відео:
кодек: DivX 5
розмір кадру: 720 х 544
бітрейт: 2271 кб/с
частота кадрів: 25 к/с (fps)

Аудіо #1:
мова: українська
переклад: багатоголосий закадровий
кодек: 2.0
бітрейт: 192 кб/с
озвучено: Так Треба Продакшн на замовлення Інтер
запис звуку з каналу: Ентер-фільм
Media info:
General
Format : AVI
Format/Info : Audio Video Interleave
File size : 1.46 GiB
Duration : 1 h 24 min
Overall bit rate : 2 472 kb/s
Writing application : VirtualDubMod 1.5.10.2 (build 2540/release)
Writing library : VirtualDubMod build 2540/release

Video
ID : 0
Format : MPEG-4 Visual
Format settings : BVOP1
Format settings, BVOP : 1
Format settings, QPel : No
Format settings, GMC : No warppoints
Format settings, Matrix : Default (H.263)
Muxing mode : Packed bitstream
Codec ID : DX50
Codec ID/Hint : DivX 5
Duration : 1 h 24 min
Bit rate : 2 271 kb/s
Nominal bit rate : 7 800 kb/s
Width : 720 pixels
Height : 544 pixels
Display aspect ratio : 4:3
Frame rate : 25.000 FPS
Color space : YUV
Chroma subsampling : 4:2:0
Bit depth : 8 bits
Scan type : Progressive
Compression mode : Lossy
Bits/(Pixel*Frame) : 0.232
Stream size : 1.34 GiB (92%)
Writing library : DivX 6.8.0 (UTC 2007-12-04)

Audio
ID : 1
Format : AC-3
Format/Info : Audio Coding 3
Commercial name : Dolby Digital
Codec ID : 2000
Duration : 1 h 24 min
Bit rate mode : Constant
Bit rate : 192 kb/s
Channel(s) : 2 channels
Channel layout : L R
Sampling rate : 48.0 kHz
Frame rate : 31.250 FPS (1536 SPF)
Compression mode : Lossy
Stream size : 116 MiB (8%)
Alignment : Aligned on interleaves
Interleave, duration : 40 ms (1.00 video frame)
Interleave, preload duratio : 512 ms
Title : Українська доріжка
Service kind : Complete Main
Скріншоти:





Семпл:
Джерело 1_________Джерело 2_________Джерело 3_________Джерело 4_________Джерело 5
У випадку, якщо з усіх джерел семпл видалять, прохання повідомити мені у ПРИВАТ


Подяка:

1. Пану Hulk1987 за запис звуку з ТБ.


Реліз створено:


Срібний реліз (на рейтинг впливає 50% завантаженого)
 Трекер:    Зареєстрований   

Завантажити / скачати фільм українською



відео для новачків



 Зареєстрований:   2020-07-07 18:42
 Розмір:   1.46 GB 
 Оцінка фільму:   -/10 (Голосів: 0)
 Прохання не тікати з роздачі і залишати коментарі.
   
Ваш часовий пояс: GMT + 2 Години

Нова тема   Відповісти