Формула 1. Сезон 2020. Етап 1. Гран-Прі Австрії. Гонка (05.07.2020) HDTV 1080i 2хUkr/Eng/Int

Нові коментарі

Нова тема   Відповісти
Автор Повідомлення
sergiyko.5 
Забанено
Забанено


З нами з: 25.02.16
Востаннє: 29.10.20
Повідомлень: 3651

2020-07-07 14:06  
Формула 1. Сезон 2020. Етап 1. Гран-Прі Австрії. Гонка (05.07.2020) HDTV 1080i 2хUkr/Eng/Int


Формула 1. Сезон 2020. Етап 1. Гран-Прі Австрії. Гонка (05.07.2020) HDTV 1080i 2хUkr/Eng/Int

Жанр: Перегони Формули 1
Країна: Австрія
Телеканал: FEED
Коментар: Максим Подзігун (1), Роман Гончаров (2) SkySports F1 (3)

Опис:
Гонка першого етапу Гран-Прі Австрії 2020 року.


Якість: HDTV

Відео:кодек: розмір кадру: 1920 х 1080 бітрейт: 12000 кб/с
Аудіо 1: мова: українська кодек: 2.0 бітрейт: 192 кб/с
Аудіо 2: мова: українська кодек: 2.0 бітрейт: 192 кб/с
Аудіо 3: мова: англійська кодек: 2.0 бітрейт: 192 кб/с
Аудіо 4: мова: інтершум кодек: 2.0 бітрейт: 192 кб/с

Примітка: в місцях, де коментар українською мовою відсутній, вставлено звук 4 доріжки.
Тривалість:
02:25:14
Про файл:
General
Unique ID : 298299453906852336508438156713363297311 (0xE06A6293C637C296F9A0A0A41868D41F)
Complete name : D:\Documents\Torrents\F1.2020.01.Austria.Race.Sat.Feed.1080i.Ukr.Eng.Int.
Format :
Format version : Version 4
File size : 12.8 GiB
Duration : 2 h 25 min
Overall bit rate mode : Variable
Overall bit rate : 12.7 Mb/s
Encoded date : UTC 2020-07-07 11:53:45
Writing application : v47.0.0 ('Black Flag') 64-bit
Writing library : libebml v1.3.10 + v1.5.2

Video
ID : 1
Format : AVC
Format/Info : Advanced Video Codec
Format profile : [email protected]
Format settings : CABAC / 4 Ref Frames
Format settings, CABAC : Yes
Format settings, Reference : 4 frames
Codec ID : V_MPEG4/ISO/AVC
Duration : 2 h 25 min
Bit rate mode : Variable
Bit rate : 11.9 Mb/s
Maximum bit rate : 40.0 Mb/s
Width : 1 920 pixels
Height : 1 080 pixels
Display aspect ratio : 16:9
Frame rate mode : Variable
Frame rate : 50.000 FPS
Original frame rate : 25.000 FPS
Color space : YUV
Chroma subsampling : 4:2:0
Bit depth : 8 bits
Scan type : Interlaced
Scan type, store method : Separated fields
Scan order : Top Field First
Bits/(Pixel*Frame) : 0.115
Stream size : 12.1 GiB (94%)
Language : English
Default : Yes
Forced : No
Color range : Limited
Color primaries : BT.709
Transfer characteristics : BT.709
Matrix coefficients : BT.709

Audio #1
ID : 2
Format : AC-3
Format/Info : Audio Coding 3
Commercial name : Dolby Digital
Codec ID : A_AC3
Duration : 2 h 25 min
Bit rate mode : Constant
Bit rate : 192 kb/s
Channel(s) : 2 channels
Channel layout : L R
Sampling rate : 48.0 kHz
Frame rate : 31.250 FPS (1536 SPF)
Compression mode : Lossy
Stream size : 199 MiB (2%)
Title : Максим Подзігун
Language : Ukrainian
Service kind : Complete Main
Default : Yes
Forced : Yes

Audio #2
ID : 3
Format : AC-3
Format/Info : Audio Coding 3
Commercial name : Dolby Digital
Codec ID : A_AC3
Duration : 2 h 25 min
Bit rate mode : Constant
Bit rate : 192 kb/s
Channel(s) : 2 channels
Channel layout : L R
Sampling rate : 48.0 kHz
Frame rate : 31.250 FPS (1536 SPF)
Compression mode : Lossy
Stream size : 199 MiB (2%)
Title : Роман Гончаров
Language : Ukrainian
Service kind : Complete Main
Default : No
Forced : No

Audio #3
ID : 4
Format : AC-3
Format/Info : Audio Coding 3
Commercial name : Dolby Digital
Codec ID : A_AC3
Duration : 2 h 25 min
Bit rate mode : Constant
Bit rate : 192 kb/s
Channel(s) : 2 channels
Channel layout : L R
Sampling rate : 48.0 kHz
Frame rate : 31.250 FPS (1536 SPF)
Compression mode : Lossy
Delay relative to video : 165 ms
Stream size : 199 MiB (2%)
Title : Sky Sports
Language : English
Service kind : Complete Main
Default : No
Forced : No

Audio #4
ID : 5
Format : AC-3
Format/Info : Audio Coding 3
Commercial name : Dolby Digital
Codec ID : A_AC3
Duration : 2 h 25 min
Bit rate mode : Constant
Bit rate : 192 kb/s
Channel(s) : 2 channels
Channel layout : L R
Sampling rate : 48.0 kHz
Frame rate : 31.250 FPS (1536 SPF)
Compression mode : Lossy
Delay relative to video : 165 ms
Stream size : 199 MiB (2%)
Title : Int
Service kind : Complete Main
Default : No
Forced : No
Скріншоти:


Запис: Shewa1
Зведення: sergiyko



Срібний реліз (на рейтинг впливає 50% завантаженого)
 Трекер:    Зареєстрований   

Завантажити / скачати торрент



відео для новачків



 Зареєстрований:   2020-07-07 14:06
 Розмір:   12.84 GB 
 Оцінка:   10/10 (Голосів: 7)
   
Ваш часовий пояс: GMT + 2 Години

Нова тема   Відповісти