Шалені викладачі (Божевільні вчителі) / Les profs (2013) 720p 2xUkr/Fre

Нові коментарі

Нова тема   Відповісти
Автор Повідомлення
staf777 
Відео Гуртом - підтримка та поширення
Відео Гуртом - підтримка та поширення


З нами з: 16.11.16
Востаннє: 29.09.20
Повідомлень: 4073

2020-07-07 10:39  
Шалені викладачі (Божевільні вчителі) / Les profs (2013) 720p 2xUkr/Fre

Шалені викладачі (Божевільні вчителі) / Les profs (2013) 720p 2xUkr/Fre


Жанр: комедія
Країна: Франція



Кінокомпанія: Les films du 24, TF1 Droits Audiovisuels, TF1 Films Production
Режисер: П'єр-Франсуа Мартен-Лаваль / Pierre-François Martin-Laval
Актори: Крістіан Клав'є / Christian Clavier, Ізабель Нанті / Isabelle Nanty, П'єр-Франсуа Мартен-Лаваль / Pierre-François Martin-Laval, Кев Адамс / Kev Adams, Франсуа Морель / François Morel, Арно Дюкре / Arnaud Ducret, Стефі Сельма / Stéfi Celma, Реймонд Бочар / Raymond Bouchard, Фред Туш / Fred Tousch та інші

Сюжет:
Ліцей Жюля Феррі міцно закріпив за собою славу притулку для лобурів і невдах. Якщо випускники завалять іспити, то в наступному році навчальний заклад буде закрито. Але молоді нероби беруться за розум під керівництвом своїх дивакуватих вчителів.


Тривалість: 01:28:04
Якість:
Відео:
кодек:
розмір кадру: 1280x544
бітрейт: 5008 кб/с

Аудіо # 1:
мова: українська
переклад: багатоголосий закадровий
кодек: 2.0 (стерео)
бітрейт: 192 кб/с

Аудіо # 2:
мова: українська
переклад: багатоголосий закадровий
кодек: 2.0
бітрейт: 192 кб/с

Аудіо # 3:
мова: французька
переклад: оригінал
кодек: 5.1
бітрейт: 448 кб/с
Info
General
Unique ID : 44809002071255600827165867459022318877 (0x21B5E65EF9C717FEA6AE5C78FCDE6D1D)
Complete name : E:\Комедія\Les profs (2013) 720p [2xUKR][FRE][Hurtom].
Format :
Format version : Version 4
File size : 3.59 GiB
Duration : 1 h 28 min
Overall bit rate : 5 843 kb/s
Movie name : Шалені викладачі (Божевільні вчителі) / Les profs (2013) 720p [2xUKR][FRE][Hurtom]
Encoded date : UTC 2020-07-07 07:45:02
Writing application : v46.0.0 ('No Deeper Escape') 64-bit
Writing library : libebml v1.3.10 + v1.5.2
Cover : Yes
Attachments : cover.jpg

Video
ID : 1
Format : AVC
Format/Info : Advanced Video Codec
Format profile : [email protected]
Format settings : CABAC / 12 Ref Frames
Format settings, CABAC : Yes
Format settings, Reference : 12 frames
Codec ID : V_MPEG4/ISO/AVC
Duration : 1 h 28 min
Bit rate : 5 008 kb/s
Width : 1 280 pixels
Height : 544 pixels
Display aspect ratio : 2.35:1
Frame rate mode : Constant
Frame rate : 24.000 FPS
Color space : YUV
Chroma subsampling : 4:2:0
Bit depth : 8 bits
Scan type : Progressive
Bits/(Pixel*Frame) : 0.300
Stream size : 3.08 GiB (86%)
Writing library : core 125 r2208 d9d2288
Encoding settings : cabac=1 / ref=12 / deblock=1:-3:-3 / analyse=0x3:0x133 / me=tesa / subme=11 / psy=1 / psy_rd=1.00:0.05 / mixed_ref=1 / me_range=24 / chroma_me=1 / trellis=2 / 8x8dct=1 / cqm=0 / deadzone=21,11 / fast_pskip=0 / chroma_qp_offset=-3 / threads=12 / lookahead_threads=2 / sliced_threads=0 / nr=0 / decimate=1 / interlaced=0 / bluray_compat=0 / constrained_intra=0 / bframes=7 / b_pyramid=2 / b_adapt=2 / b_bias=0 / direct=1 / weightb=1 / open_gop=0 / weightp=2 / keyint=250 / keyint_min=24 / scenecut=40 / intra_refresh=0 / rc=crf / mbtree=0 / crf=18.0 / qcomp=0.60 / qpmin=0 / qpmax=69 / qpstep=4 / ip_ratio=1.30 / pb_ratio=1.15 / aq=2:1.00
Language : English
Default : Yes
Forced : No

Audio #1
ID : 2
Format : AC-3
Format/Info : Audio Coding 3
Commercial name : Dolby Digital
Codec ID : A_AC3
Duration : 1 h 28 min
Bit rate mode : Constant
Bit rate : 192 kb/s
Channel(s) : 2 channels
Channel layout : L R
Sampling rate : 48.0 kHz
Frame rate : 31.250 FPS (1536 SPF)
Compression mode : Lossy
Stream size : 121 MiB (3%)
Title : MVO [K1], 2.0 [stereo] 192 Kbps
Language : Ukrainian
Service kind : Complete Main
Default : Yes
Forced : Yes

Audio #2
ID : 3
Format : AC-3
Format/Info : Audio Coding 3
Commercial name : Dolby Digital
Codec ID : A_AC3
Duration : 1 h 28 min
Bit rate mode : Constant
Bit rate : 192 kb/s
Channel(s) : 2 channels
Channel layout : L R
Sampling rate : 48.0 kHz
Frame rate : 31.250 FPS (1536 SPF)
Compression mode : Lossy
Stream size : 121 MiB (3%)
Title : MVO [1+1], 2.0 192 Kbps
Language : Ukrainian
Service kind : Complete Main
Default : No
Forced : No

Audio #3
ID : 4
Format : AC-3
Format/Info : Audio Coding 3
Commercial name : Dolby Digital
Codec ID : A_AC3
Duration : 1 h 28 min
Bit rate mode : Constant
Bit rate : 448 kb/s
Channel(s) : 6 channels
Channel layout : L R C LFE Ls Rs
Sampling rate : 48.0 kHz
Frame rate : 31.250 FPS (1536 SPF)
Compression mode : Lossy
Stream size : 282 MiB (8%)
Title : Original, 5.1 448 kbps
Language : French
Service kind : Complete Main
Default : No
Forced : No

Menu
00:00:00.000 : fr:
00:08:59.000 : fr:
00:17:13.416 : fr:
00:26:51.958 : fr:
00:33:20.708 : fr:
00:37:00.000 : fr:
00:41:35.458 : fr:
00:46:52.958 : fr:
00:54:42.333 : fr:
01:00:20.458 : fr:
01:07:30.791 : fr:
01:13:33.125 : fr:
01:28:03.958 : fr:
Скріншоти
Над доріжками працювали: Sando7, Electroz
Джерело: &



 Трекер:    Зареєстрований   

Завантажити / скачати фільм українською



відео для новачків



 Зареєстрований:   2020-07-07 13:03
 Розмір:   3.59 GB 
 Оцінка фільму:   8.7/10 (Голосів: 7)
   
Інші релізи
bot 
робот


З нами з: 30.09.07
Востаннє: 26.05.05
Повідомлень: 25655

2020-07-07 13:03  
Тему перенесено з Анонси релізів до форуму Фільми в HD


staf777

RudiUA 
Свій


З нами з: 02.04.13
Востаннє: 24.09.20
Повідомлень: 53

2020-07-12 20:26  
марна трата часу, дурня.
waldi-hurtom 
VIP


З нами з: 07.10.12
Востаннє: 29.09.20
Повідомлень: 1183

2020-07-15 20:34  
Далеко не шедевр, звісно, але дивитися можна. Що далеко не завжди можна сказати про французькі комедії, іноді просто страшенно дратують. Наприклад, у молоді роки дивився Луї де Фінеса, але останні років десять, як не більше, на дух не переношу. 7 з 10.
Ваш часовий пояс: GMT + 2 Години

Нова тема   Відповісти