Веселі ніжки / Happy Feet (2006) 1080p Ukr/Eng | Sub Ukr/Eng

Нові коментарі

Нова тема   Відповісти
Автор Повідомлення
staf777 
Відео Гуртом - підтримка та поширення
Відео Гуртом - підтримка та поширення


З нами з: 16.11.16
Востаннє: 08.03.21
Повідомлень: 5126

2020-07-06 20:05  
Веселі ніжки / Happy Feet (2006) 1080p Ukr/Eng | Sub Ukr/Eng

Веселі ніжки / Happy Feet (2006) 1080p Ukr/Eng | Sub Ukr/Eng


Жанр: анімація, комедія, сімейний, мюзикл, сімейний
Країна: Австралія, США



Кінокомпанія: Warner Bros., Village Roadshow Pictures, Kennedy Miller Productions
Режисер: Джордж Міллер, Воррен Колмен, Джуді Морріс
Актори: Елайджа Вуд, Бріттані Мерфі, Г'ю Джекмен, Ніколь Кідман, Г'юґо Вівінґ, Елізабет Дейлі, Робін Вільямс та інші

Сюжет:
Курчата забивають свого брата, чимось несхожого на них - так вже вони влаштовані. На жаль, тисячоліття еволюції та прогресу не змінили аналогічної звички в людському суспільстві, а у "Веселих ніжках" - і в пінгвінячому. Малюк Мамбл, який трохи примерз в яйці, що його впустив під час довгої полярної ночі його татко, саме такий вигнанець. Весь їхній рід з прадавніх часів співав - складаючи шану Великому Гвіну чи знаходячи собі кохану, і лиш Мамблу не пощастило на голос. Зате він дивно дріботить ніжками і, нахабство яке, навіть не збирається припиняти цю безглузду справу, через що рано чи пізно йому доведеться залишити зграю і піти геть - на таких несхожих завжди вішають усі проблеми суспільства, навіть зникнення риби в океані...


Тривалість: 01:48:32
Якість: 1080p
Відео:
кодек:
розмір кадру: 1920x800
бітрейт: 4489 кб/с

Аудіо # 1:
мова: українська
переклад: професійний дубльований
кодек: 5.1
бітрейт: 384 кб/с
Про дубляж
Режисер: Костянтин Лінартович
Переклад: Олекси Негребецького
Звукоінженер: Боб Шевяков
Слова пісень: Ганни Розіної
Ролі дублювали: Мамбл малий — Мишко Жогло, Мамбл дорослий — Іван Розін, Ґлорія мала - Валерія Туловська, Ґлорія доросла — Інна Бєлікова, Рамон — Олег Михайлюта (Фагот), Ловелас — Олександр Ігнатуша, Мемфіс — Микола Боклан, Норма Джі — Лариса Руснак, Старійшина Ной — Володимир Жогло, Головний коморник — Борис Георгієвський, Ломбардо — Дмитро Лінартович, Рауль — Володимир Канівець, Нестор — Микола Кашеїда, Пані Віола — Ірина Дорошенко, Пані Астрахань — Тетяна Зіновенко, Сеймур малий — Владислав Туловський, Сеймур дорослий — Іван Оглоблін та інші
Аудіо # 2:
мова: англійська
переклад: оригінал
кодек: 5.1
бітрейт: 640 кб/с

Субтитри:
мова: українська , англійська
тип: програмні (м'які)
формат: *.srt

Info
General
Unique ID : 245563067306292675521400833307501391916 (0xB8BDB9F9068389F7AEF8CD945A27F02C)
Complete name : Z:\Мультфільми в HD\Happy Feet (2006) 1080p [UKR_ENG] [Hurtom].
Format :
Format version : Version 4
File size : 4.18 GiB
Duration : 1 h 48 min
Overall bit rate : 5 516 kb/s
Movie name : Веселі ніжки / Happy Feet (2006) 1080p [UKR_ENG] [Hurtom]
Encoded date : UTC 2020-07-07 06:33:37
Writing application : v46.0.0 ('No Deeper Escape') 64-bit
Writing library : libebml v1.3.10 + v1.5.2
Cover : Yes
Attachments : cover.jpg

Video
ID : 1
Format : AVC
Format/Info : Advanced Video Codec
Format profile : [email protected]
Format settings : CABAC / 5 Ref Frames
Format settings, CABAC : Yes
Format settings, Reference : 5 frames
Codec ID : V_MPEG4/ISO/AVC
Duration : 1 h 48 min
Bit rate : 4 489 kb/s
Width : 1 920 pixels
Height : 800 pixels
Display aspect ratio : 2.40:1
Frame rate mode : Constant
Frame rate : 23.976 (24000/1001) FPS
Color space : YUV
Chroma subsampling : 4:2:0
Bit depth : 8 bits
Scan type : Progressive
Bits/(Pixel*Frame) : 0.122
Stream size : 3.40 GiB (81%)
Title : Rip by Boriy
Writing library : core 125 r2208 d9d2288
Encoding settings : cabac=1 / ref=5 / deblock=1:0:0 / analyse=0x3:0x113 / me=umh / subme=10 / psy=1 / psy_rd=1.00:0.10 / mixed_ref=1 / me_range=32 / chroma_me=1 / trellis=2 / 8x8dct=1 / cqm=0 / deadzone=21,11 / fast_pskip=0 / chroma_qp_offset=-3 / threads=12 / lookahead_threads=2 / sliced_threads=0 / nr=0 / decimate=0 / interlaced=0 / bluray_compat=0 / constrained_intra=0 / bframes=5 / b_pyramid=2 / b_adapt=2 / b_bias=0 / direct=3 / weightb=1 / open_gop=0 / weightp=2 / keyint=240 / keyint_min=23 / scenecut=40 / intra_refresh=0 / rc_lookahead=60 / rc=2pass / mbtree=1 / bitrate=4489 / ratetol=1.0 / qcomp=0.60 / qpmin=0 / qpmax=69 / qpstep=4 / cplxblur=20.0 / qblur=0.5 / ip_ratio=1.40 / aq=1:1.00
Language : English
Default : Yes
Forced : No

Audio #1
ID : 2
Format : AC-3
Format/Info : Audio Coding 3
Commercial name : Dolby Digital
Codec ID : A_AC3
Duration : 1 h 48 min
Bit rate mode : Constant
Bit rate : 384 kb/s
Channel(s) : 6 channels
Channel layout : L R C LFE Ls Rs
Sampling rate : 48.0 kHz
Frame rate : 31.250 FPS (1536 SPF)
Compression mode : Lossy
Stream size : 298 MiB (7%)
Title : 5.1 - 384 kbps [DVD]
Language : Ukrainian
Service kind : Complete Main
Default : Yes
Forced : Yes

Audio #2
ID : 3
Format : AC-3
Format/Info : Audio Coding 3
Commercial name : Dolby Digital
Codec ID : A_AC3
Duration : 1 h 48 min
Bit rate mode : Constant
Bit rate : 640 kb/s
Channel(s) : 6 channels
Channel layout : L R C LFE Ls Rs
Sampling rate : 48.0 kHz
Frame rate : 31.250 FPS (1536 SPF)
Compression mode : Lossy
Stream size : 497 MiB (12%)
Title : 5.1 - 640 kbps
Language : English
Service kind : Complete Main
Default : No
Forced : No

Text #1
ID : 4
Format : UTF-8
Codec ID : S_TEXT/UTF8
Codec ID/Info : UTF-8 Plain Text
Duration : 1 h 47 min
Bit rate : 88 b/s
Count of elements : 1361
Stream size : 69.8 KiB (0%)
Title : Full
Language : Ukrainian
Default : No
Forced : No

Text #2
ID : 5
Format : UTF-8
Codec ID : S_TEXT/UTF8
Codec ID/Info : UTF-8 Plain Text
Duration : 1 h 44 min
Bit rate : 60 b/s
Count of elements : 1354
Stream size : 46.4 KiB (0%)
Title : Full
Language : English
Default : No
Forced : No

Menu
00:00:00.000 : :Chapter 1
00:04:42.282 : :Chapter 2
00:07:00.586 : :Chapter 3
00:11:55.548 : :Chapter 4
00:15:05.404 : :Chapter 5
00:18:15.928 : :Chapter 6
00:22:27.512 : :Chapter 7
00:27:35.987 : :Chapter 8
00:29:55.293 : :Chapter 9
00:32:48.466 : :Chapter 10
00:36:59.550 : :Chapter 11
00:39:48.386 : :Chapter 12
00:43:52.463 : :Chapter 13
00:49:13.951 : :Chapter 14
00:52:19.803 : :Chapter 15
00:56:11.868 : :Chapter 16
01:00:52.649 : :Chapter 17
01:03:49.826 : :Chapter 18
01:07:12.862 : :Chapter 19
01:10:25.554 : :Chapter 20
01:13:49.091 : :Chapter 21
01:16:39.595 : :Chapter 22
01:21:40.395 : :Chapter 23
01:25:07.102 : :Chapter 24
01:27:15.897 : :Chapter 25
01:31:30.485 : :Chapter 26
01:34:31.999 : :Chapter 27
01:38:42.416 : :Chapter 28
01:48:31.963 : :Chapter 29

Джерело:




 Трекер:    Зареєстрований   

Завантажити / скачати мультфільм українською



відео для новачків



 Зареєстрований:   2020-07-07 09:00
 Розмір:   4.18 GB 
 Оцінка мультфільму:   8.3/10 (Голосів: 3)
   
Інші релізи
bot 
робот


З нами з: 30.09.07
Востаннє: 26.05.05
Повідомлень: 27351

2020-07-07 09:00  
Тему перенесено з Анонси релізів до форуму Фільми в HD


staf777

bot 
робот


З нами з: 30.09.07
Востаннє: 26.05.05
Повідомлень: 27351

2020-07-07 09:00  
Тему перенесено з Фільми в HD до форуму Мультфільми в HD


staf777

Ваш часовий пояс: GMT + 2 Години

Нова тема   Відповісти