Знайомство за шлюбним оголошенням / Cours après moi... que je t'attrape (1976) -AVC Ukr/Fre

Нові коментарі

Нова тема   Відповісти
Автор Повідомлення
Arsenfpu 
Відео Гуртом - фільмокрай
Відео Гуртом - фільмокрай


З нами з: 30.04.09
Востаннє: 05.08.20
Повідомлень: 7115

2020-07-06 20:40  
Знайомство за шлюбним оголошенням / Cours après moi... que je t'attrape (1976) -AVC Ukr/Fre

Знайомство за шлюбним оголошенням / Cours après moi... que je t'attrape (1976) -AVC Ukr/Fre


Жанр: комедія
Країна: Франція



Кінокомпанія: Les Films 21, Axe Films, France 3 (FR 3)
Режисер: Робер Пуре
Актори: Анні Жирардо, Жан-П'єр Марьель, Женев'єв Фонтанельо, Марілу Толо, Даніель Прево

Сюжет:
«У мене цікаве заняття: я виконую примхи психопаток», - каже симпатична 40-річна жінка з лаконічною стрижкою і жадібно затягується «Житані». Жаклін Брашeр (Жирардо) працює в салоні «Шикарний собака» - стриже кучері собак багатих нероб. У Жаклін немає чоловіка, рідних теж немає. Її співрозмовник - трішки "пом'ятий" чоловік, який всю дорогу мне газету - ту ж саму, що і Жаклін. У цьому кафе вони зустрічаються по оголошенню, які обидва дали в рубрику «Знайомства». Чоловікові (Маріель) трохи більш ніяково - не тому навіть, що вже на перше побачення прийшов зі шлейфом історії батька-одинака, а тому, що рід занять його надто вже малопривабливий: він служить податковим інспектором. Втім, обидва досить втрачені для життя, щоб не зніяковіти прозою і перетворити її якщо не в поетичний оборот, то в привід для комедії стосунків.


Тривалість: 01:24:57
Якість:
Відео:
кодек:
розмір кадру: [email protected]
бітрейт: 2700 кб/с

Аудіо # 1:
мова: українська
переклад: багатоголосий закадровий
кодек: 2.0
бітрейт: 192 кб/с

Аудіо # 2:
мова: французька
переклад: оригінал
кодек: 2.0
бітрейт: 192 кб/с
Скріншоти














Про файл
General
Unique ID : 133374261749686730403583540418962156956 (0x6456F2CDB671B7E4411DD4B024FE6D9C)
Complete name : C:\Cours apres moi... que je t'attrape (1976) [Ukr,Fre] -AVC [Hurtom].
Format :
Format version : Version 4 / Version 2
File size : 1.83 GiB
Duration : 1 h 24 min
Overall bit rate : 3 086 kb/s
Movie name : Знайомство за шлюбним оголошенням / Cours après moi... que je t'attrape (1976)
Encoded date : UTC 2020-07-06 18:45:27
Writing application : v21.0.0 ('Tardigrades Will Inherit The Earth') 32-bit
Writing library : libebml v1.3.5 + v1.4.8
Cover : Yes
Attachments : cover.jpg

Video
ID : 1
Format : AVC
Format/Info : Advanced Video Codec
Format profile : [email protected]
Format settings, CABAC : Yes
Format settings, ReFrames : 14 frames
Codec ID : V_MPEG4/ISO/AVC
Duration : 1 h 24 min
Bit rate : 2 700 kb/s
Width : 658 pixels
Height : 572 pixels
Display aspect ratio : 16:10
Original display aspect rat : 16:10
Frame rate mode : Constant
Frame rate : 25.000 FPS
Color space : YUV
Chroma subsampling : 4:2:0
Bit depth : 8 bits
Scan type : Progressive
Bits/(Pixel*Frame) : 0.287
Stream size : 1.60 GiB (87%)
Writing library : core 148 r2638 7599210
Encoding settings : cabac=1 / ref=14 / deblock=1:-2:-2 / analyse=0x3:0x133 / me=umh / subme=10 / psy=1 / psy_rd=1.05:0.15 / mixed_ref=1 / me_range=32 / chroma_me=1 / trellis=2 / 8x8dct=1 / cqm=0 / deadzone=21,11 / fast_pskip=0 / chroma_qp_offset=-3 / threads=4 / lookahead_threads=1 / sliced_threads=0 / nr=0 / decimate=0 / interlaced=0 / bluray_compat=0 / constrained_intra=0 / bframes=16 / b_pyramid=2 / b_adapt=2 / b_bias=0 / direct=3 / weightb=1 / open_gop=0 / weightp=2 / keyint=250 / keyint_min=25 / scenecut=40 / intra_refresh=0 / rc=2pass / mbtree=0 / bitrate=2700 / ratetol=1.0 / qcomp=0.60 / qpmin=0 / qpmax=69 / qpstep=4 / cplxblur=20.0 / qblur=0.5 / ip_ratio=1.40 / pb_ratio=1.30 / aq=1:1.00
Language : English
Default : Yes
Forced : No
Color range : Limited
Color primaries : BT.601 NTSC
Transfer characteristics : BT.601
Matrix coefficients : BT.601

Audio #1
ID : 2
Format : AC-3
Format/Info : Audio Coding 3
Mode extension : CM (complete main)
Format settings, Endianness : Big
Codec ID : A_AC3
Duration : 1 h 24 min
Bit rate mode : Constant
Bit rate : 192 kb/s
Channel(s) : 2 channels
Channel positions : Front: L R
Sampling rate : 48.0 kHz
Frame rate : 31.250 FPS (1536 spf)
Compression mode : Lossy
Stream size : 117 MiB (6%)
Language : Ukrainian
Default : Yes
Forced : Yes

Audio #2
ID : 3
Format : AC-3
Format/Info : Audio Coding 3
Mode extension : CM (complete main)
Format settings, Endianness : Big
Codec ID : A_AC3
Duration : 1 h 24 min
Bit rate mode : Constant
Bit rate : 192 kb/s
Channel(s) : 2 channels
Channel positions : Front: L R
Sampling rate : 48.0 kHz
Frame rate : 31.250 FPS (1536 spf)
Compression mode : Lossy
Stream size : 117 MiB (6%)
Language : French
Default : No
Forced : No
Джерело:
За запис з ТБ дякую пану Bohdan237
Особиста оцінка: не дивився


Срібний реліз (на рейтинг впливає 50% завантаженого)
 Трекер:    Зареєстрований   

Завантажити / скачати фільм українською



відео для новачків



 Зареєстрований:   2020-07-06 23:16
 Розмір:   1.83 GB 
 Оцінка фільму:   10/10 (Голосів: 4)
   
bot 
робот


З нами з: 30.09.07
Востаннє: 26.05.05
Повідомлень: 25166

2020-07-06 23:16  
Тему перенесено з Анонси релізів до форуму Фільми


Arsenfpu

601сан 
Поважний учасник


З нами з: 22.05.12
Востаннє: 05.08.20
Повідомлень: 244

2020-07-12 23:22  
Легкий та позитивний фільм Wink (1)
Ваш часовий пояс: GMT + 2 Години

Нова тема   Відповісти