Модифікований Карбон (Сезон 2) / Altered Carbon (Season 2) (2020) UHD 2160p 4K HDR H.265 Ukr/Eng | Sub Eng

Нові коментарі

Нова тема   Відповісти
Автор Повідомлення
RoMeL 
Відео Гуртом - підтримка та поширення
Відео Гуртом - підтримка та поширення


З нами з: 09.07.08
Востаннє: 24.11.20
Повідомлень: 195

2020-07-06 12:14  
Модифікований Карбон (Сезон 2) / Altered Carbon (Season 2) (2020) UHD 2160p 4K HDR H.265 Ukr/Eng | Sub Eng


Модифікований Карбон (Сезон 2) / Altered Carbon (Season 2) (2020) UHD 2160p 4K HDR H.265 Ukr/Eng | Sub Eng


Жанр: драма, наукова фантастика, трилер
Країна: США



Кінокомпанія: Netflix
Режисер: Джуліус Онаг
Актори: Ентоні Макі, Джоел Кіннаман, Джеймс Пуріфой, Марта Гіґаріде та інші

Сюжет:
Продовження історії про майбутнє, де стало можливим перенесення свідомості в нове тіло.


Тривалість: 1 серія: 50:00 (цілком серій: 8)
Перелік серій
Епізод 01. Примарна пані
Епізод 02. Відстрочений платіж
Епізод 03. Коло жахіть
Епізод 04. Тінь сумніву
Епізод 05. Прокинутись. Знову
Епізод 06. Поховай мене мертвим
Епізод 07. Ризикований експеримент
Епізод 08. Понівечені янголи
Якість: 2160p HDR
Відео:
кодек: H.265 (HEVC)
розмір кадру: 3840 х 1920
бітрейт: ~23,1 Мбіт/сек
бітова глибина: 10 біт
кольоровий простір: BT.2020 (HDR)

Увага! Перед завантаженням переконайтесь, що ваш пристрій відтворення (та/або ПЗ) підтримує H.265 (HEVC)

Аудіо # 1:
мова: українська
переклад: багатоголосий закадровий
кодек: 5.1
бітрейт: 448 кб/с

Джерело озвучення:
Переклад: Aspid
Редакція і контроль якості: nacheSova
Ролі озвучили: Lem0nka, AdrianZP, Lomaev
Робота зі звуком: AdrianZP
Постер: Otaku-First

Аудіо # 2:
мова: англійська
переклад: оригінал
кодек: E- 5.1 + Atmos
бітрейт: 448 кб/с

Субтитри # 1-2:
мова: англійська (повні, SDH)
тип: програмні (м'які)
формат: *.srt
Info

Код:
General
Unique ID                                : 281227213017601200959000774501068122395 (0xD392641D577028EFA875D23D32A7291B)
Complete name                            : /Volumes/Download/Shows/Altered.Carbon.S02.2020..2160p.HDR.[Ukr.Eng]/Altered.Carbon.S02E01.2020..2160p.HDR.[Ukr.Eng].
Format                                   :
Format version                           : Version 4
File size                                : 7.50 GiB
Duration                                 : 45mn 7s
Overall bit rate                         : 23.8 Mbps
Movie name                               : Altered.Carbon.S02E01.2020..2160p.HDR.[Ukr.Eng]
Encoded date                             : UTC 2020-07-05 12:52:45
Writing application                      : v47.0.0 ('Black Flag') 64-bit
Writing library                          : libebml v1.3.10 + v1.5.2
Cover                                    : Yes
Attachments                              : Cover.jpg

Video
ID                                       : 1
Format                                   : HEVC
Format/Info                              : High Efficiency Video Coding
Format profile                           : Main [email protected]@High
HDR format                               : SMPTE ST 2086, HDR10 compatible
Codec ID                                 : V_MPEGH/ISO/HEVC
Duration                                 : 44mn 7s
Bit rate                                 : 23.1 Mbps
Width                                    : 3 840 pixels
Height                                   : 1 920 pixels
Display aspect ratio                     : 2.000
Frame rate mode                          : Constant
Frame rate                               : 23.976 (24000/1001) fps
Color space                              : YUV
Chroma subsampling                       : 4:2:0 (Type 2)
Bit depth                                : 10 bits
Bits/(Pixel*Frame)                       : 0.131
Stream size                              : 7.11 GiB (95%)
Writing library                          : x265 3.2+38-fdbd4e4a2aff:[Windows][GCC 9.2.1][64 bit] 10bit
Encoding settings                        : cpuid=1111039 / frame-threads=4 / numa-pools=24 / wpp / no-pmode / no-pme / no-psnr / no-ssim / log-level=2 / input-csp=1 / input-res=3840x1920 / interlace=0 / total-frames=63473 / level-idc=51 / high-tier=1 / uhd-bd=0 / ref=5 / no-allow-non-conformance / repeat-headers / annexb / aud / hrd / info / hash=0 / no-temporal-layers / open-gop / min-keyint=23 / keyint=250 / gop-lookahead=0 / bframes=8 / b-adapt=2 / b-pyramid / bframe-bias=0 / rc-lookahead=40 / lookahead-slices=4 / scenecut=40 / hist-scenecut=0 / radl=0 / no-splice / no-intra-refresh / ctu=64 / min-cu-size=8 / no-rect / no-amp / max-tu-size=32 / tu-inter-depth=4 / tu-intra-depth=4 / limit-tu=4 / rdoq-level=2 / dynamic-rd=0.00 / no-ssim-rd / signhide / no-tskip / nr-intra=0 / nr-inter=0 / no-constrained-intra / strong-intra-smoothing / max-merge=4 / limit-refs=3 / limit-modes / me=3 / subme=5 / merange=57 / temporal-mvp / no-frame-dup / no-hme / weightp / weightb / no-analyze-src-pics / deblock=-3:-3 / no-sao / no-sao-non-deblock / rd=4 / selective-sao=0 / no-early-skip / rskip / no-fast-intra / no-tskip-fast / no-cu-lossless / b-intra / no-splitrd-skip / rdpenalty=0 / psy-rd=2.00 / psy-rdoq=2.00 / no-rd-refine / no-lossless / cbqpoffs=0 / crqpoffs=0 / rc=crf / crf=18.0 / qcomp=0.60 / qpstep=4 / stats-write=0 / stats-read=0 / vbv-maxrate=160000 / vbv-bufsize=160000 / vbv-init=0.9 / crf-max=0.0 / crf-min=0.0 / ipratio=1.30 / pbratio=1.15 / aq-mode=1 / aq-strength=0.80 / no-cutree / zone-count=0 / no-strict-cbr / qg-size=32 / no-rc-grain / qpmax=69 / qpmin=0 / no-const-vbv / sar=1 / overscan=0 / videoformat=5 / range=0 / colorprim=9 / transfer=16 / colormatrix=9 / chromaloc=1 / chromaloc-top=2 / chromaloc-bottom=2 / display-window=0 / master-display=G(13250,34500)B(7500,3000)R(34000,16000)WP(15635,16450)L(10000000,1) / cll=1313,616 / min-luma=0 / max-luma=1023 / log2-max-poc-lsb=8 / vui-timing-info / vui-hrd-info / slices=1 / no-opt-qp-pps / no-opt-ref-list-length-pps / no-multi-pass-opt-rps / scenecut-bias=0.05 / hist-threshold=0.01 / no-opt-cu-delta-qp / no-aq-motion / hdr10 / hdr10-opt / no-dhdr10-opt / no-idr-recovery-sei / analysis-reuse-level=0 / analysis-save-reuse-level=0 / analysis-load-reuse-level=0 / scale-factor=0 / refine-intra=0 / refine-inter=0 / refine-mv=1 / refine-ctu-distortion=0 / no-limit-sao / ctu-info=0 / no-lowpass-dct / refine-analysis-type=0 / copy-pic=1 / max-ausize-factor=1.0 / no-dynamic-refine / no-single-sei / no-hevc-aq / no-svt / no-field / qp-adaptation-range=1.00 / no-scenecut-aware-qpconformance-window-offsets / right=0 / bottom=0
Language                                 : English
Default                                  : Yes
Forced                                   : No
Color range                              : Limited
Color primaries                          : BT.2020
Transfer characteristics                 : PQ
Matrix coefficients                      : BT.2020 non-constant
Mastering display color primaries        : Display P3
Mastering display luminance              : min: 0.0001 cd/m2, max: 1000 cd/m2
Maximum Content Light Level              : 1313 cd/m2
Maximum Frame-Average Light Level        : 616 cd/m2

Audio #1
ID                                       : 2
Format                                   : AC-3
Format/Info                              : Audio Coding 3
Commercial name                          : Dolby Digital
Codec ID                                 : A_AC3
Duration                                 : 45mn 7s
Bit rate mode                            : Constant
Bit rate                                 : 448 Kbps
Channel(s)                               : 6 channels
Channel layout                           : L R C LFE Ls Rs
Sampling rate                            : 48.0 KHz
Frame rate                               : 31.250 fps (1536 SPF)
Compression mode                         : Lossy
Stream size                              : 145 MiB (2%)
Title                                    : Українська 5.1 Dzuski.com (AdrianZP, Lem0nka, Lomaev)
Language                                 : Ukrainian
Service kind                             : Complete Main
Default                                  : Yes
Forced                                   : No

Audio #2
ID                                       : 3
Format                                   : E-AC-3 JOC
Format/Info                              : Enhanced AC-3 with Joint Object Coding
Commercial name                          : Dolby Digital Plus with Dolby Atmos
Codec ID                                 : A_EAC3
Duration                                 : 45mn 7s
Bit rate mode                            : Constant
Bit rate                                 : 768 Kbps
Channel(s)                               : 6 channels
Channel layout                           : L R C LFE Ls Rs
Sampling rate                            : 48.0 KHz
Frame rate                               : 31.250 fps (1536 SPF)
Compression mode                         : Lossy
Stream size                              : 248 MiB (3%)
Language                                 : English
Service kind                             : Complete Main
Default                                  : No
Forced                                   : No
Complexity index                         : 16
Number of dynamic objects                : 15
Bed channel count                        : 1 channel
Bed channel configuration                : LFE

Text #1
ID                                       : 4
Format                                   : UTF-8
Codec ID                                 : S_TEXT/UTF8
Codec ID/Info                            : UTF-8 Plain Text
Duration                                 : 24mn 41s
Bit rate                                 : 1 bps
Count of elements                        : 8
Stream size                              : 262 Bytes (0%)
Language                                 : English
Default                                  : No
Forced                                   : No

Text #2
ID                                       : 5
Format                                   : UTF-8
Codec ID                                 : S_TEXT/UTF8
Codec ID/Info                            : UTF-8 Plain Text
Duration                                 : 43mn 49s
Bit rate                                 : 62 bps
Count of elements                        : 601
Stream size                              : 20.0 KiB (0%)
Title                                    : SDH
Language                                 : English
Default                                  : No
Forced                                   : No
Скріншоти






Джерело: & DZUSKI.COM &
Особиста оцінка: 10 - без зайвих вагань рекомендую всім!



Авторський реліз (завантажувати можна без реєстрації)
 Трекер:    Зареєстрований   

Завантажити / скачати серіал українською



відео для новачків



 Зареєстрований:   2020-07-06 12:14
 Розмір:   64.11 GB 
 Оцінка серіалу:   9.5/10 (Голосів: 10)
   
Варджра 
Новенький


З нами з: 28.03.17
Востаннє: 22.11.20
Повідомлень: 14

2020-09-06 20:54  
гарний серіал, навіть не знав що є другій сезон
azazin 
Новенький


З нами з: 13.06.16
Востаннє: 24.11.20
Повідомлень: 3

2020-10-12 16:16  
Тут рукав замість оболонка?
Ваш часовий пояс: GMT + 2 Години

Нова тема   Відповісти