Вінні Пух / Winnie the Pooh (2011) AVC Ukr/Eng | Sub Ukr/Eng

Нові коментарі

Нова тема   Відповісти
Автор Повідомлення
staf777 
Відео Гуртом - підтримка та поширення
Відео Гуртом - підтримка та поширення


З нами з: 16.11.16
Востаннє: 31.10.20
Повідомлень: 4250

2020-07-06 08:28  
Вінні Пух / Winnie the Pooh (2011) AVC Ukr/Eng | Sub Ukr/Eng

Вінні Пух / Winnie the Pooh (2011) AVC Ukr/Eng | Sub Ukr/Eng


Жанр: анімація, сімейний
Країна: США



Кінокомпанія: Walt Disney Pictures, Walt Disney Animation Studios; мейджор – Buena Vista Sony Pictures Releasing (BVSPR)
Режисер: Світен Дж. Андерсон, Дон Холл
Ролі озвучують: Джим Куммінс, Крейг Фергюсон, Джон Кліз, Том Кенні, Бад Лакі

Сюжет:
Дісней представляє першу за 35 років анімаційну повнометражну комедію "Вінні Пух". Глядачі матимуть змогу знову побачити своїх улюбленних героїв - ведмедика Пуха, а також його друзів Тигру, Кролика, Поросятка, Кенгу, Ру, а також віслючка Іа, який загубів свій хвіст. Сова посилає усіх друзів у непросту подорож, щоб врятувати Крістофера Робіна від уявного злочинця. Для ведмедика, який вийшов з дому для того, щоб знайти трохи меду, день виявляеться надто полохливим і важким.

Фільм знятий за мотивами відомих історій А.А. Мілна.


Тривалість: 01:03:03
Якість: AVC
Відео:
кодек:
розмір кадру: 1024x576
бітрейт: 2 535 кб/с

Аудіо # 1:
мова: українська
переклад: професійний дубльований
кодек: 5.1
бітрейт: 384 кб/с

Аудіо # 2:
мова: англійська
переклад: оригінал
кодек: 5.1
бітрейт: 384 кб/с

Субтитри:
мова: українська
тип: програмні (м'які)
формат: *.srt

Субтитри:
мова: англійська
тип: програмні (м'які)
формат: *.srt
MI
General
Unique ID : 214661711908218439720437726715962147055 (0xA17E5785F491AF28EBC71DE44D3F40EF)
Complete name : Z:\Мультфільми AVC\Winnie the Pooh (2011) AVC [UKR_ENG] [Hurtom].
Format :
Format version : Version 4
File size : 1.46 GiB
Duration : 1 h 3 min
Overall bit rate : 3 306 kb/s
Movie name : Вінні Пух / Winnie the Pooh (2011) AVC [UKR_ENG] [Hurtom]
Encoded date : UTC 2020-07-06 08:30:06
Writing application : v46.0.0 ('No Deeper Escape') 64-bit
Writing library : libebml v1.3.10 + v1.5.2
Cover : Yes
Attachments : cover.jpg

Video
ID : 1
Format : AVC
Format/Info : Advanced Video Codec
Format profile : [email protected]
Format settings : CABAC / 10 Ref Frames
Format settings, CABAC : Yes
Format settings, Reference : 10 frames
Codec ID : V_MPEG4/ISO/AVC
Duration : 1 h 3 min
Bit rate : 2 535 kb/s
Width : 1 024 pixels
Height : 576 pixels
Display aspect ratio : 16:9
Frame rate mode : Constant
Frame rate : 23.976 (24000/1001) FPS
Color space : YUV
Chroma subsampling : 4:2:0
Bit depth : 8 bits
Scan type : Progressive
Bits/(Pixel*Frame) : 0.179
Stream size : 1.12 GiB (77%)
Writing library : core 116 r2074 2641b9e
Encoding settings : cabac=1 / ref=10 / deblock=1:-3:-3 / analyse=0x3:0x133 / me=umh / subme=10 / psy=1 / psy_rd=1.00:0.10 / mixed_ref=1 / me_range=48 / chroma_me=1 / trellis=2 / 8x8dct=1 / cqm=0 / deadzone=21,11 / fast_pskip=0 / chroma_qp_offset=-3 / threads=6 / sliced_threads=0 / nr=0 / decimate=1 / interlaced=0 / bluray_compat=0 / constrained_intra=0 / bframes=5 / b_pyramid=2 / b_adapt=2 / b_bias=0 / direct=3 / weightb=1 / open_gop=0 / weightp=2 / keyint=250 / keyint_min=23 / scenecut=40 / intra_refresh=0 / rc_lookahead=40 / rc=2pass / mbtree=1 / bitrate=2535 / ratetol=1.0 / qcomp=0.60 / qpmin=10 / qpmax=51 / qpstep=4 / cplxblur=20.0 / qblur=0.5 / ip_ratio=1.40 / aq=1:1.00
Language : English
Default : Yes
Forced : No

Audio #1
ID : 2
Format : AC-3
Format/Info : Audio Coding 3
Commercial name : Dolby Digital
Codec ID : A_AC3
Duration : 1 h 3 min
Bit rate mode : Constant
Bit rate : 384 kb/s
Channel(s) : 6 channels
Channel layout : L R C LFE Ls Rs
Sampling rate : 48.0 kHz
Frame rate : 31.250 FPS (1536 SPF)
Compression mode : Lossy
Stream size : 173 MiB (12%)
Title : 5.1 384 kbps - професійний дубльований
Language : Ukrainian
Service kind : Complete Main
Default : Yes
Forced : Yes

Audio #2
ID : 3
Format : AC-3
Format/Info : Audio Coding 3
Commercial name : Dolby Digital
Codec ID : A_AC3
Duration : 1 h 3 min
Bit rate mode : Constant
Bit rate : 384 kb/s
Channel(s) : 6 channels
Channel layout : L R C LFE Ls Rs
Sampling rate : 48.0 kHz
Frame rate : 31.250 FPS (1536 SPF)
Compression mode : Lossy
Stream size : 173 MiB (12%)
Title : 5.1 384 kbps - оригінал
Language : English
Service kind : Complete Main
Default : No
Forced : No

Text #1
ID : 4
Format : UTF-8
Codec ID : S_TEXT/UTF8
Codec ID/Info : UTF-8 Plain Text
Duration : 1 h 1 min
Bit rate : 103 b/s
Count of elements : 940
Stream size : 46.9 KiB (0%)
Title : Full
Language : Ukrainian
Default : No
Forced : No

Text #2
ID : 5
Format : UTF-8
Codec ID : S_TEXT/UTF8
Codec ID/Info : UTF-8 Plain Text
Duration : 1 h 2 min
Bit rate : 75 b/s
Count of elements : 1011
Stream size : 34.3 KiB (0%)
Title : Full [SDH]
Language : English
Default : No
Forced : No

Menu
00:00:00.000 : en:00:00:00.000
00:05:31.581 : en:00:05:31.581
00:09:54.511 : en:00:09:54.511
00:16:01.752 : en:00:16:01.752
00:20:23.889 : en:00:20:23.889
00:23:14.184 : en:00:23:14.184
00:26:22.831 : en:00:26:22.831
00:30:09.599 : en:00:30:09.599
00:35:24.164 : en:00:35:24.164
00:41:37.328 : en:00:41:37.328
00:45:47.161 : en:00:45:47.161
00:48:08.928 : en:00:48:08.928
00:51:05.104 : en:00:51:05.104
00:53:36.004 : en:00:53:36.004


Джерело:


 Трекер:    Зареєстрований   

Завантажити / скачати мультфільм українською



відео для новачків



 Зареєстрований:   2020-07-06 10:49
 Розмір:   1.46 GB 
 Оцінка мультфільму:   10/10 (Голосів: 1)
   
Інші релізи
bot 
робот


З нами з: 30.09.07
Востаннє: 26.05.05
Повідомлень: 26013

2020-07-06 08:28  
Тему перенесено з Мультфільми до форуму Анонси релізів


staf777

bot 
робот


З нами з: 30.09.07
Востаннє: 26.05.05
Повідомлень: 26013

2020-07-06 10:49  
Тему перенесено з Анонси релізів до форуму Мультфільми


staf777

Ваш часовий пояс: GMT + 2 Години

Нова тема   Відповісти