Гладіатори Риму (Not Born to Be Gladiators) / Gladiatori di Roma (2012) AVC 2xUkr/Ita | Sub Ita

Нові коментарі

Нова тема   Відповісти
Автор Повідомлення
staf777 
Відео Гуртом - підтримка та поширення
Відео Гуртом - підтримка та поширення


З нами з: 16.11.16
Востаннє: 23.10.20
Повідомлень: 4213

2020-07-05 21:08  
Гладіатори Риму (Not Born to Be Gladiators) / Gladiatori di Roma (2012) AVC 2xUkr/Ita | Sub Ita

Гладіатори Риму (Not Born to Be Gladiators) / Gladiatori di Roma (2012) AVC 2xUkr/Ita | Sub Ita


Жанр: анімація, пригодницький, комедія
Країна: Італія



Кінокомпанія: Rainbow S.r.l.
Режисер: Іґініо Страффі
Ролі озвучують: Люка Арджентеро, Лаура Кьятті, Джуліанна Хаф та ін.

Сюжет:
Страшне виверження вулкана руйнує місто Помпеї, і маленький Тім залишається сиротою. Його рятівник, генерал Кірон, відправляє Тіма в школу гладіаторів, але юний ледар наполегливо не бажає ставати бійцем. Подорослішавши, Тім закохується в красуню Лючіллу. Але щоб підкорити її серце, потрібно стати справжнім героєм. Прекрасна Діана, богиня полювання і майстер по гладіаторським боям, береться за тренування Тіма перед першим боєм. Але чи вийде у Тіма перемогти самого себе і стати справжнім чоловіком?


Тривалість: 01:34:04
Якість: AVC
Відео:
кодек:
розмір кадру: 1040x442
бітрейт: 1975 кб/с

Аудіо # 1:
мова: українська
переклад: професійний дубльований | студія AAA-sound
кодек: 5.1
бітрейт: 448 кб/с

Аудіо # 2:
мова: українська
переклад: багатоголосий закадровий (поверх англійського дубляжу)
кодек: 2.0
бітрейт: 192 кб/с

Аудіо # 3:
мова: італійська
переклад: оригінал
кодек: 5.1
бітрейт: 448 кб/с

Субтитри:
мова: італійська
тип: пререндерні
формат: *.pgs
MI
General
Unique ID : 42049982875411045615650110169297549617 (0x1FA28838E3D6D52D42EC94EA60357931)
Complete name : Z:\Мультфільми AVC\Not Born to Be Gladiators (2012) AVC [2xUKR][ITA][Hurtom].
Format :
Format version : Version 4
File size : 2.02 GiB
Duration : 1 h 34 min
Overall bit rate : 3 075 kb/s
Movie name : Гладіатори Риму / Gladiatori di Roma / Not Born to Be Gladiators (2012) AVC [2xUKR][ITA][Hurtom]
Encoded date : UTC 2020-07-06 06:04:19
Writing application : v46.0.0 ('No Deeper Escape') 64-bit
Writing library : libebml v1.3.10 + v1.5.2
Cover : Yes
Attachments : cover.jpg

Video
ID : 1
Format : AVC
Format/Info : Advanced Video Codec
Format profile : [email protected]
Format settings : CABAC / 10 Ref Frames
Format settings, CABAC : Yes
Format settings, Reference : 10 frames
Codec ID : V_MPEG4/ISO/AVC
Duration : 1 h 34 min
Bit rate : 1 975 kb/s
Width : 1 040 pixels
Height : 442 pixels
Display aspect ratio : 2.35:1
Frame rate mode : Constant
Frame rate : 23.976 FPS
Color space : YUV
Chroma subsampling : 4:2:0
Bit depth : 8 bits
Scan type : Progressive
Bits/(Pixel*Frame) : 0.179
Stream size : 1.30 GiB (64%)
Title : Gladiatori di Roma
Writing library : core 130 r2273 b3065e6
Encoding settings : cabac=1 / ref=10 / deblock=1:-1:-1 / analyse=0x3:0x133 / me=umh / subme=11 / psy=1 / psy_rd=1.15:0.05 / mixed_ref=1 / me_range=32 / chroma_me=1 / trellis=2 / 8x8dct=1 / cqm=0 / deadzone=21,11 / fast_pskip=0 / chroma_qp_offset=-3 / threads=8 / lookahead_threads=2 / sliced_threads=0 / nr=0 / decimate=0 / interlaced=0 / bluray_compat=0 / constrained_intra=0 / bframes=11 / b_pyramid=2 / b_adapt=2 / b_bias=0 / direct=3 / weightb=1 / open_gop=0 / weightp=2 / keyint=250 / keyint_min=23 / scenecut=40 / intra_refresh=0 / rc_lookahead=60 / rc=2pass / mbtree=0 / bitrate=1975 / ratetol=1.0 / qcomp=0.70 / qpmin=0 / qpmax=69 / qpstep=4 / cplxblur=20.0 / qblur=0.5 / vbv_maxrate=20000 / vbv_bufsize=20000 / nal_hrd=none / ip_ratio=1.35 / pb_ratio=1.25 / aq=1:0.70
Language : Italian
Default : Yes
Forced : No

Audio #1
ID : 2
Format : AC-3
Format/Info : Audio Coding 3
Commercial name : Dolby Digital
Codec ID : A_AC3
Duration : 1 h 34 min
Bit rate mode : Constant
Bit rate : 448 kb/s
Channel(s) : 6 channels
Channel layout : L R C LFE Ls Rs
Sampling rate : 48.0 kHz
Frame rate : 31.250 FPS (1536 SPF)
Compression mode : Lossy
Stream size : 301 MiB (15%)
Title : Дубляж | AAA-sound
Language : Ukrainian
Service kind : Complete Main
Default : Yes
Forced : Yes

Audio #2
ID : 3
Format : AC-3
Format/Info : Audio Coding 3
Commercial name : Dolby Digital
Codec ID : A_AC3
Duration : 1 h 34 min
Bit rate mode : Constant
Bit rate : 192 kb/s
Channel(s) : 2 channels
Channel layout : L R
Sampling rate : 48.0 kHz
Frame rate : 31.250 FPS (1536 SPF)
Compression mode : Lossy
Stream size : 129 MiB (6%)
Title : MVO від ТЕТ
Language : Ukrainian
Service kind : Complete Main
Default : No
Forced : No

Audio #3
ID : 4
Format : AC-3
Format/Info : Audio Coding 3
Commercial name : Dolby Digital
Codec ID : A_AC3
Duration : 1 h 34 min
Bit rate mode : Constant
Bit rate : 448 kb/s
Channel(s) : 6 channels
Channel layout : L R C LFE Ls Rs
Sampling rate : 48.0 kHz
Frame rate : 31.250 FPS (1536 SPF)
Compression mode : Lossy
Stream size : 301 MiB (15%)
Title : Оригінал
Language : Italian
Service kind : Complete Main
Default : No
Forced : No

Text
ID : 5
Format : PGS
Muxing mode : zlib
Codec ID : S_HDMV/PGS
Codec ID/Info : Picture based subtitle format used on BDs/HD-DVDs
Duration : 1 h 28 min
Bit rate : 46.4 kb/s
Count of elements : 1872
Stream size : 29.4 MiB (1%)
Title : З BD
Language : Italian
Default : No
Forced : No

Над доріжками працювали Skiff та NeetScrool
Джерело: &


 Трекер:    Зареєстрований   

Завантажити / скачати мультфільм українською



відео для новачків



 Зареєстрований:   2020-07-06 09:12
 Розмір:   2.02 GB 
 Оцінка мультфільму:   7.8/10 (Голосів: 4)
   
bot 
робот


З нами з: 30.09.07
Востаннє: 26.05.05
Повідомлень: 25919

2020-07-06 09:12  
Тему перенесено з Анонси релізів до форуму Мультфільми


staf777

Ваш часовий пояс: GMT + 2 Години

Нова тема   Відповісти