Формула 1. Сезон 2020. Етап 1. Гран-Прі Австрії. Гонка (05.07.2020) IPTV 720p 2хUkr/Eng

Нові коментарі

Нова тема   Відповісти
Автор Повідомлення
sergiyko.5 
VIP


З нами з: 25.02.16
Востаннє: 23.10.20
Повідомлень: 3610

2020-07-05 19:18  
Формула 1. Сезон 2020. Етап 1. Гран-Прі Австрії. Гонка (05.07.2020) IPTV 720p 2хUkr/Eng


Формула 1. Сезон 2020. Етап 1. Гран-Прі Австрії. Гонка (05.07.2020) IPTV 720p 2хUkr/Eng

Жанр: Перегони Формули 1
Країна: Австрія
Телеканал: ESPN HD
Коментар: Максим Подзігун (1), Роман Гончаров (2) SkySports F1 (3)

Опис:
Гонка першого етапу Гран-Прі Австрії 2020 року.


Якість: IPTV

Відео:кодек: розмір кадру: 1280 х 720 бітрейт: 5500 кб/с
Аудіо 1: мова: українська кодек: 2.0 бітрейт: 192 кб/с
Аудіо 2: мова: українська кодек: 2.0 бітрейт: 192 кб/с
Аудіо 3: мова: англійська кодек: 2.0 бітрейт: 128 кб/с
Тривалість:
01:53:37
Про файл:
General
Unique ID : 286128760005178966549433774321581729696 (0xD742650A0A0A2EFF0F1B221701C4A7A0)
Complete name : D:\Documents\Torrents\F1.2020.01.Austria.Race.720p.IPTV.Ukr.Eng.
Format :
Format version : Version 4
File size : 4.75 GiB
Duration : 1 h 53 min
Overall bit rate : 5 982 kb/s
Movie name : rip by sergiyko
Encoded date : UTC 2020-07-05 16:12:52
Writing application : v47.0.0 ('Black Flag') 64-bit
Writing library : libebml v1.3.10 + v1.5.2

Video
ID : 1
Format : AVC
Format/Info : Advanced Video Codec
Format profile : [email protected]
Format settings : CABAC / 4 Ref Frames
Format settings, CABAC : Yes
Format settings, Reference : 4 frames
Codec ID : V_MPEG4/ISO/AVC
Duration : 1 h 53 min
Bit rate mode : Constant
Bit rate : 5 472 kb/s
Width : 1 280 pixels
Height : 720 pixels
Display aspect ratio : 16:9
Frame rate mode : Constant
Frame rate : 59.940 (60000/1001) FPS
Color space : YUV
Chroma subsampling : 4:2:0
Bit depth : 8 bits
Scan type : Progressive
Bits/(Pixel*Frame) : 0.099
Stream size : 4.34 GiB (91%)
Title : ESPN HD
Language : English
Default : Yes
Forced : No

Audio #1
ID : 2
Format : AC-3
Format/Info : Audio Coding 3
Commercial name : Dolby Digital
Codec ID : A_AC3
Duration : 1 h 53 min
Bit rate mode : Constant
Bit rate : 192 kb/s
Channel(s) : 2 channels
Channel layout : L R
Sampling rate : 48.0 kHz
Frame rate : 31.250 FPS (1536 SPF)
Compression mode : Lossy
Delay relative to video : -908 ms
Stream size : 156 MiB (3%)
Title : Максим Подзігун
Language : Ukrainian
Service kind : Complete Main
Default : Yes
Forced : Yes

Audio #2
ID : 3
Format : AC-3
Format/Info : Audio Coding 3
Commercial name : Dolby Digital
Codec ID : A_AC3
Duration : 1 h 53 min
Bit rate mode : Constant
Bit rate : 192 kb/s
Channel(s) : 2 channels
Channel layout : L R
Sampling rate : 48.0 kHz
Frame rate : 31.250 FPS (1536 SPF)
Compression mode : Lossy
Delay relative to video : -908 ms
Stream size : 156 MiB (3%)
Title : Роман Гончаров
Language : Ukrainian
Service kind : Complete Main
Default : No
Forced : No

Audio #3
ID : 4
Format : LC
Format/Info : Advanced Audio Codec Low Complexity
Codec ID : A_AAC-2
Duration : 1 h 53 min
Bit rate : 125 kb/s
Channel(s) : 2 channels
Channel layout : L R
Sampling rate : 48.0 kHz
Frame rate : 46.875 FPS (1024 SPF)
Compression mode : Lossy
Delay relative to video : -908 ms
Stream size : 102 MiB (2%)
Title : Мартін Брандл та Девід Крофт
Language : English
Default : No
Forced : No
Скріншоти:


Запис/зведення: sergiyko



 Трекер:    Зареєстрований   

Завантажити / скачати торрент



відео для новачків



 Зареєстрований:   2020-07-05 19:18
 Розмір:   4.75 GB 
 Оцінка:   10/10 (Голосів: 46)
   
SadreeK 
Новенький


З нами з: 14.08.18
Востаннє: 13.10.20
Повідомлень: 7

2020-07-05 19:22  
Дуже вдячний.Дай Вам Бог здоров'я за вашу працю.
AgentApplePie 
Новенький


З нами з: 22.05.12
Востаннє: 22.10.20
Повідомлень: 1

2020-07-05 19:30  
вдячний вам за роботу!
denys_koval 
Новенький


З нами з: 20.05.17
Востаннє: 22.10.20
Повідомлень: 1

2020-07-05 20:16  
Дякую!!!
gorad2 
Новенький


З нами з: 24.11.12
Востаннє: 11.10.20
Повідомлень: 1

2020-07-05 20:54  
Дуже дякую, дай Бог Вам здоров'я і файну жінку
Shiko 
Новенький


З нами з: 08.03.11
Востаннє: 11.10.20
Повідомлень: 4

2020-07-05 21:22  
sergiyko.5
Велика подяка!
P.S. Істеричного Подзігуна слухати неможливо з його "поребриком" та "наша улюблена Торпеда (це про Квята)". За можливість вибору коментатора - особлива подяка!

extrom 
Новенький


З нами з: 21.02.16
Востаннє: 13.10.20
Повідомлень: 13

2020-07-05 22:16  
Ось це гонка. Емоції просто зашкалювали. Рекомендую до перегляду всім хто вагається дивитися чи ні)))
Також велике дякую автору)

beat` 
Новенький


З нами з: 03.11.14
Востаннє: 22.10.20
Повідомлень: 8

2020-07-06 00:53  
Дякую!
Але чому така низька якість?
Хоча б 1080р....

greend79 
Новенький


З нами з: 13.12.13
Востаннє: 22.10.20
Повідомлень: 16

2020-07-06 09:28  
Вітаю товариство. Хтось в курсі, чого Подзігун не коментує на Сетанта спорт Україна? Не зійшлись в гонорарі чи на каналі багато противників української мови?
З.І. Питання скорше риторичне...

З.З.І Хоч нажаль і расіянською слухав гонку в прямому, зате про Квята згадали лише раз чи два виключно в констатації його місця в пелетоні, проте "паребрікі" таки проскакували.

yurrf1 
Новенький


З нами з: 17.09.18
Востаннє: 11.10.20
Повідомлень: 1

2020-07-06 13:30  
Класний етап. Дякую
Dron1994 
Частий відвідувач


З нами з: 07.07.14
Востаннє: 14.10.20
Повідомлень: 32

2020-07-06 17:58  
greend79
Подзігун просто зовсім жадібним став..
Почав коментувати для вузького кола заможних людей, причому вирішив косити гривні самостійно.

А Роман залишився вірний звичайним посиденькам простих фанів в пабах за невелику ціну, його трансляцію я й дивився на ф1.юа.

volodymyr417 
Новенький


З нами з: 27.08.11
Востаннє: 15.10.20
Повідомлень: 10

2020-07-10 12:42  
Якщо 5.5$ на місяць це заможні люди, то я не знаю що вам на це відповісти. Є справді люди для яких ця сума є значною, але я думаю більшість людей просто воліє потратити ці кошти на щось інше і жаліється що це дорого.
sergiyko.5 
VIP


З нами з: 25.02.16
Востаннє: 23.10.20
Повідомлень: 3610

2020-07-10 13:02  
volodymyr417
А ви бачили те слайд-шоу, так зване відео перегонів? Ті що пропонує Подзігун за 5 баксів, їх неможливо дивитись без сліз. Приходиться вирізати його коментар і зводити з якісним відео.
Так, є в нього матеріали дійсно якісні авторські і є фанати які хочуть його отримувати навіть за гроші. Але більшість хоче подивитись якісну трансляцію, яка наразі недоступна з українським коментарем.

volodymyr417 
Новенький


З нами з: 27.08.11
Востаннє: 15.10.20
Повідомлень: 10

2020-07-11 16:49  
sergiyko.5
Він в основному пропонує свій матеріал за ту ціну. Трансляції це допоміжне. На жаль наразі така якість як є. Можна слухати аудіо коментар, при бажані оплатити офіційну трансляцію F1.com і звезти з аудіо доріжкою.

Ваш часовий пояс: GMT + 2 Години

Нова тема   Відповісти