Схильність (Сезон 1: 5 серій з 6) / Bent (Season 1: episodes 5 of 6) (2012) 1080p Ukr/Eng | sub Eng

Нові коментарі

Нова тема   Відповісти
Останній раз роздавалося ssTAss (2020-12-04)
Автор Повідомлення
Anonymous 







2020-07-05 17:15  
Схильність (Сезон 1: 5 серій з 6) / Bent (Season 1: episodes 5 of 6) (2012) 1080p Ukr/Eng | sub Eng

Схильність (Сезон 1: 5 серій з 6) / Bent (Season 1: episodes 5 of 6) (2012) 1080p Ukr/Eng | sub Eng


Жанр: комедія
Країна: США



Кінокомпанія: Quill Entertainment, Universal Television
Режисер: Тед Куілл
Актори: Аманда Піт , Девід Уолтон , Марго Харшман, Джефрі Тембор та ін.

Сюжет:
"Схильність" - романтична комедія про двох людей, які можуть змінитись, але не зламатись. В новій американській комедії Аманда Піт з'явиться у ролі Алекс, розлученої 35-річної жінки, яка доволі незграбно намагається побудувати нові романтичні стосунки та за будь-яких обставин зберегти свою сексуальність. Але найнявши на роботу зухвалого красунчика, азартного гравця Піта (Девід Уолтон), Алекс доведеться зробити вибір – або нудні, але постійні стосунки, до яких так звикла Алекс, або ризиковане та непередбачуване, але шалено емоційне кохання.


Тривалість: 1 серія: ~ 21 хв. (цілком серій: 5 з 6)
Перелік серій
1. Pilot
2. Smitten
3. HD
4. A-Game
5. Mom (серія відсутня в роздачі)
6. Tile Date
Якість:
Відео:
кодек:
розмір кадру: 1920 x 1080
бітрейт: 12.6 Mб/с

Аудіо # 1:
мова: українська
переклад: двоголосий закадровий
кодек: 2.0
бітрейт: 192 кб/с

Аудіо # 2:
мова: англійська
переклад: оригінал
кодек: 5.1
бітрейт: 640 кб/с

Джерело озвучення:


Субтитри:
мова: англійська
тип: програмні (м'які)
формат: *.srt
Info
Код:
General
Unique ID                                : 100079746854185027313360325391847781421 (0x4B4AA87B29B4B721C0F5416AD5C7F42D)
Complete name                            : Bent S01E01 (2012) 1080p [Ukr_Eng] [Hurtom].
Format                                   :
Format version                           : Version 4
File size                                : 2.00 GiB
Duration                                 : 21 min 22 s
Overall bit rate mode                    : Variable
Overall bit rate                         : 13.4 Mb/s
Movie name                               : Схильність (Сезон 1, серія 1) (2012)
Encoded date                             : UTC 2020-07-04 10:29:43
Writing application                      : v30.1.0 ('Forever And More') 64-bit
Writing library                          : libebml v1.3.6 + v1.4.9
Cover                                    : Yes
Attachments                              : cover.jpg

Video
ID                                       : 1
Format                                   : AVC
Format/Info                              : Advanced Video Codec
Format profile                           : [email protected]
Format settings                          : CABAC / 4 Ref Frames
Format settings, CABAC                   : Yes
Format settings, Reference frames        : 4 frames
Codec ID                                 : V_MPEG4/ISO/AVC
Duration                                 : 21 min 22 s
Bit rate mode                            : Variable
Bit rate                                 : 12.6 Mb/s
Maximum bit rate                         : 15.0 Mb/s
Width                                    : 1 920 pixels
Height                                   : 1 080 pixels
Display aspect ratio                     : 16:9
Frame rate mode                          : Constant
Frame rate                               : 23.976 (24000/1001) FPS
Color space                              : YUV
Chroma subsampling                       : 4:2:0
Bit depth                                : 8 bits
Scan type                                : Progressive
Bits/(Pixel*Frame)                       : 0.253
Stream size                              : 1.87 GiB (94%)
Writing library                          : core 148 r2623 d5b2374
Encoding settings                        : cabac=1 / ref=4 / deblock=1:-1:-1 / analyse=0x3:0x133 / me=umh / subme=9 / psy=1 / psy_rd=1.00:0.15 / mixed_ref=1 / me_range=24 / chroma_me=1 / trellis=2 / 8x8dct=1 / cqm=0 / deadzone=21,11 / fast_pskip=1 / chroma_qp_offset=-3 / threads=34 / lookahead_threads=5 / sliced_threads=0 / nr=150 / decimate=1 / interlaced=0 / bluray_compat=0 / constrained_intra=0 / bframes=8 / b_pyramid=2 / b_adapt=2 / b_bias=0 / direct=3 / weightb=1 / open_gop=0 / weightp=2 / keyint=120 / keyint_min=61 / scenecut=0 / intra_refresh=0 / rc_lookahead=120 / rc=crf / mbtree=1 / crf=18.0 / qcomp=0.60 / qpmin=0 / qpmax=69 / qpstep=4 / vbv_maxrate=15000 / vbv_bufsize=31250 / crf_max=0.0 / nal_hrd=vbr / filler=0 / ip_ratio=1.40 / aq=3:1.00
Language                                 : English
Default                                  : Yes
Forced                                   : No
Color range                              : Limited
Color primaries                          : BT.709
Transfer characteristics                 : BT.709
Matrix coefficients                      : BT.709

Audio #1
ID                                       : 2
Format                                   : AC-3
Format/Info                              : Audio Coding 3
Commercial name                          : Dolby Digital
Codec ID                                 : A_AC3
Duration                                 : 21 min 22 s
Bit rate mode                            : Constant
Bit rate                                 : 192 kb/s
Channel(s)                               : 2 channels
Channel layout                           : L R
Sampling rate                            : 48.0 kHz
Frame rate                               : 31.250 FPS (1536 SPF)
Compression mode                         : Lossy
Stream size                              : 29.3 MiB (1%)
Language                                 : Ukrainian
Service kind                             : Complete Main
Default                                  : Yes
Forced                                   : Yes

Audio #2
ID                                       : 3
Format                                   : E-AC-3
Format/Info                              : Enhanced AC-3
Commercial name                          : Dolby Digital Plus
Codec ID                                 : A_EAC3
Duration                                 : 21 min 22 s
Bit rate mode                            : Constant
Bit rate                                 : 640 kb/s
Channel(s)                               : 6 channels
Channel layout                           : L R C LFE Ls Rs
Sampling rate                            : 48.0 kHz
Frame rate                               : 31.250 FPS (1536 SPF)
Compression mode                         : Lossy
Stream size                              : 97.8 MiB (5%)
Language                                 : English
Service kind                             : Complete Main
Default                                  : No
Forced                                   : No

Text
ID                                       : 4
Format                                   : UTF-8
Codec ID                                 : S_TEXT/UTF8
Codec ID/Info                            : UTF-8 Plain Text
Duration                                 : 21 min 6 s
Bit rate                                 : 108 b/s
Count of elements                        : 554
Stream size                              : 16.7 KiB (0%)
Language                                 : English
Default                                  : Yes
Forced                                   : No

Скріншоти




Джерело:
Подяка пану РОМЕО за надані доріжки.


Бронзовий реліз (на рейтинг впливає 75% завантаженого)
 Трекер:    Зареєстрований   

Завантажити / скачати серіал українською



відео для новачків



 Зареєстрований:   2020-07-05 17:15
 Розмір:   10.49 GB 
 Оцінка серіалу:   -/10 (Голосів: 0)
   
Anonymous 







2020-07-05 17:18  
шукаю записи 5 і 6 серії (наявна в релізі шоста з дропами)
за інформацією, цей серіал показували на НЛО ТБ
https://teleprostir.com/news/companynews/show-20123-nlo-tv-pokazhe-serial-skhilnist
може в когось є записи?

Ваш часовий пояс: GMT + 2 Години

Нова тема   Відповісти