Бджілка Майя та медові ігри (Бджілка Майя: Кубок меду) / Maya the Bee: The Honey Games (2018) 720p 2xUkr/Eng | Sub Eng

Нові коментарі

Нова тема   Відповісти
Автор Повідомлення
staf777 
Відео Гуртом - підтримка та поширення
Відео Гуртом - підтримка та поширення


З нами з: 16.11.16
Востаннє: 07.03.21
Повідомлень: 5109

2020-07-05 15:06  
Бджілка Майя та медові ігри (Бджілка Майя: Кубок меду) / Maya the Bee: The Honey Games (2018) 720p 2xUkr/Eng | Sub Eng



Жанр: комедія, сімейний, пригодницький
Країна: Німеччина, Австралія



Кінокомпанія: Studio 100 Media, Studio B Animation
Режисер: Ноель Клірі, Серджо Делфіно, Алекс Стадерманн
Актори: Коко Джек Гілліс, Бенсон Джек Ентоні, Річард Роксбург, Джастін Кларк, Марни Маккуїн, Кем Ральф, Сем Хафт, Пітер МакКаллум

Сюжет:
Бджілка Майя з нетерпінням чекає початку спортивних змагань між вуликами за Кубок меду. Однак Імператриця не тільки не допускає її вулик до ігор, але і вимагає, щоб вони віддали половину свого врожаю меду для харчування інших спортсменів. Такий стан справ не влаштовує бджілку, і вона летить до Імператриці, щоб домогтися включення її команди в список учасників.


Тривалість: 01:24:48
Якість: 720p
Відео:
кодек:
розмір кадру: 1280x692
бітрейт: 4500 кб/с

Аудіо # 1:
мова: українська
переклад: професійний дубльований
кодек: 2.0
бітрейт: 192 кб/с

Аудіо # 2:
мова: українська
переклад: багатоголосий закадровий
кодек: 2.0
бітрейт: 192 кб/с

Аудіо # 3:
мова: англійська
переклад: оригінал
кодек: 5.1
бітрейт: 640 кб/с

Субтитри:
мова: англійська
тип: програмні (м'які)
формат: *.srt
Info
General
Unique ID : 285260756701912024131042101682105413734 (0xD69B392C182BC85F2503B3CF1D82F066)
Complete name : Z:\Мультфільми в HD\Maya the Bee The Honey Games (2018) 720p [2xUKR] [ENG][Hurtom].
Format :
Format version : Version 4
File size : 3.27 GiB
Duration : 1 h 24 min
Overall bit rate : 5 527 kb/s
Movie name : Бджілка Майя та медові ігри (Бджілка Майя: Кубок меду) / Maya the Bee: The Honey Games (2018) 720p [2xUKR] [ENG][Hurtom]
Encoded date : UTC 2020-07-05 17:20:45
Writing application : v46.0.0 ('No Deeper Escape') 64-bit
Writing library : libebml v1.3.10 + v1.5.2
Cover : Yes
Attachments : cover.jpg

Video
ID : 1
Format : AVC
Format/Info : Advanced Video Codec
Format profile : [email protected]
Format settings : CABAC / 9 Ref Frames
Format settings, CABAC : Yes
Format settings, Reference : 9 frames
Codec ID : V_MPEG4/ISO/AVC
Duration : 1 h 24 min
Bit rate : 4 500 kb/s
Width : 1 280 pixels
Height : 692 pixels
Display aspect ratio : 1.85:1
Frame rate mode : Constant
Frame rate : 23.976 (24000/1001) FPS
Color space : YUV
Chroma subsampling : 4:2:0
Bit depth : 8 bits
Scan type : Progressive
Bits/(Pixel*Frame) : 0.212
Stream size : 2.67 GiB (81%)
Writing library : core 155 r2901M 7d0ff22
Encoding settings : cabac=1 / ref=9 / deblock=1:-3:-3 / analyse=0x3:0x133 / me=umh / subme=11 / psy=1 / psy_rd=1.00:0.00 / mixed_ref=1 / me_range=32 / chroma_me=1 / trellis=2 / 8x8dct=1 / cqm=0 / deadzone=21,11 / fast_pskip=0 / chroma_qp_offset=-2 / threads=5 / lookahead_threads=1 / sliced_threads=0 / nr=0 / decimate=0 / interlaced=0 / bluray_compat=0 / constrained_intra=0 / bframes=10 / b_pyramid=2 / b_adapt=2 / b_bias=0 / direct=3 / weightb=1 / open_gop=0 / weightp=2 / keyint=240 / keyint_min=24 / scenecut=40 / intra_refresh=0 / rc_lookahead=120 / rc=2pass / mbtree=0 / bitrate=4500 / ratetol=1.0 / qcomp=0.70 / qpmin=0 / qpmax=69 / qpstep=4 / cplxblur=20.0 / qblur=0.5 / vbv_maxrate=62500 / vbv_bufsize=78125 / nal_hrd=none / filler=0 / ip_ratio=1.40 / pb_ratio=1.30 / aq=3:0.80
Language : English
Default : Yes
Forced : No

Audio #1
ID : 2
Format : AC-3
Format/Info : Audio Coding 3
Commercial name : Dolby Digital
Codec ID : A_AC3
Duration : 1 h 24 min
Bit rate mode : Constant
Bit rate : 192 kb/s
Channel(s) : 2 channels
Channel layout : L R
Sampling rate : 48.0 kHz
Frame rate : 31.250 FPS (1536 SPF)
Compression mode : Lossy
Stream size : 116 MiB (3%)
Title : [UKR-DUB-MEGOGO]
Language : Ukrainian
Service kind : Complete Main
Default : Yes
Forced : Yes

Audio #2
ID : 3
Format : AC-3
Format/Info : Audio Coding 3
Commercial name : Dolby Digital
Codec ID : A_AC3
Duration : 1 h 24 min
Bit rate mode : Constant
Bit rate : 192 kb/s
Channel(s) : 2 channels
Channel layout : L R
Sampling rate : 48.0 kHz
Frame rate : 31.250 FPS (1536 SPF)
Compression mode : Lossy
Stream size : 116 MiB (3%)
Title : [UKR-MVO-TET]
Language : Ukrainian
Service kind : Complete Main
Default : No
Forced : No

Audio #3
ID : 4
Format : AC-3
Format/Info : Audio Coding 3
Commercial name : Dolby Digital
Codec ID : A_AC3
Duration : 1 h 24 min
Bit rate mode : Constant
Bit rate : 640 kb/s
Channel(s) : 6 channels
Channel layout : L R C LFE Ls Rs
Sampling rate : 48.0 kHz
Frame rate : 31.250 FPS (1536 SPF)
Compression mode : Lossy
Stream size : 388 MiB (12%)
Title : ORIGINAL
Language : English
Service kind : Complete Main
Default : No
Forced : No

Text
ID : 5
Format : UTF-8
Codec ID : S_TEXT/UTF8
Codec ID/Info : UTF-8 Plain Text
Duration : 1 h 20 min
Bit rate : 71 b/s
Count of elements : 1540
Stream size : 42.6 KiB (0%)
Language : English
Default : No
Forced : No

Menu
00:00:00.000 : :Chapter 01
00:07:17.979 : :Chapter 02
00:13:21.300 : :Chapter 03
00:20:31.313 : :Chapter 04
00:28:22.200 : :Chapter 05
00:34:34.989 : :Chapter 06
00:42:38.264 : :Chapter 07
00:54:22.550 : :Chapter 08
01:03:58.876 : :Chapter 09
01:16:08.564 : :Chapter 10

Над доріжками працювали xslim, drop_plz
Джерело:


 Трекер:    Зареєстрований   

Завантажити / скачати мультфільм українською



відео для новачків



 Зареєстрований:   2020-07-05 19:27
 Розмір:   3.27 GB 
 Оцінка мультфільму:   10/10 (Голосів: 3)
   
bot 
робот


З нами з: 30.09.07
Востаннє: 26.05.05
Повідомлень: 27331

2020-07-05 15:06  
Тему перенесено з Мультфільми в HD до форуму Анонси релізів


staf777

bot 
робот


З нами з: 30.09.07
Востаннє: 26.05.05
Повідомлень: 27331

2020-07-05 19:27  
Тему перенесено з Анонси релізів до форуму Мультфільми в HD


staf777

Electroz 
Відео Гуртом - підтримка та поширення
Відео Гуртом - підтримка та поширення


З нами з: 18.09.14
Востаннє: 07.03.21
Повідомлень: 4339

2020-07-05 19:45  
staf777 написано:
переклад: дубльований

Одну фразу не можеш написати, чи клавіатура зламалася?

77997997 
VIP


З нами з: 26.02.13
Востаннє: 07.03.21
Повідомлень: 1377

2020-07-05 19:56  
Цитата:
Одну фразу не можеш написати, чи клавіатура зламалася?

Йому, напевне, шаблон дав користувач, який робив SD реліз...

leicheman 
Відео Гуртом - фільмокрай
Відео Гуртом - фільмокрай


З нами з: 03.07.14
Востаннє: 07.03.21
Повідомлень: 5956

2020-07-05 19:59  
укр.постер

staf777 
Відео Гуртом - підтримка та поширення
Відео Гуртом - підтримка та поширення


З нами з: 16.11.16
Востаннє: 07.03.21
Повідомлень: 5109

2020-07-06 07:53  
Цитата:
Йому, напевне, шаблон дав користувач, який робив SD реліз...

Та ні він напевне просто скопіював шаблон Happy
leicheman дякую за постер

tilda4334 
Відео Гуртом - фільмокрай
Відео Гуртом - фільмокрай


З нами з: 15.08.14
Востаннє: 07.03.21
Повідомлень: 1436

2020-07-07 20:34  
Electroz написано:
переклад

Куди трубити, щоб в шаблоні замінили це слово на "озвучення", бо дубляж це ніякий не переклад? Перекладач - перекладає, актор - озвучує.

Ваш часовий пояс: GMT + 2 Години

Нова тема   Відповісти