(Не)знайомці / (Nie)znajomi (2019) 720p Pol | sub Ukr/Pol

Нові коментарі

Нова тема   Відповісти
Автор Повідомлення
ivan vyrvyvuho 
VIP


З нами з: 19.08.12
Востаннє: 02.12.20
Повідомлень: 1177

2020-07-05 11:25  
(Не)знайомці / (Nie)znajomi (2019) 720p Pol | sub Ukr/Pol

(Не)знайомці / (Nie)znajomi (2019) 720p Pol | sub Ukr/Pol


Жанр: драма, комедія
Країна: Польща



Кінокомпанія: Mimikra, Polsat, Cyfrowy Polsat
Режисер: Тадеуш Сліва / Tadeusz Śliwa
Актори: Мая Осташевська / Maja Ostaszewska, Томаш Кот / Tomasz Kot, Кася Смутняк / Kasia Smutniak, Лукаш Сімлат / Łukasz Simlat, Александра Доманська / Aleksandra Domańska, Міхал Журавський / Michał Żurawski, Войцех Жолондкович / Wojciech Żołądkowicz, Наталя Єндрусь / Natalia Jędruś та інші.

Сюжет:
Стрічка "(Не)знайомці / (Nie)znajomi" це польська адаптація італійського фільму "Ідеальні незнайомці" з 2016 року. Звичайна зустріч давніх знайомих з нагоди новосілля у новій квартирі мала бути цілком прогнозованою і без сенсацій, бо всі вже дуже давно знають одне одного, але все змінилося коли було запропоновано зіграти гру. Правила дуже прості: телефонні розмови мають чути всі й повідомлення мають зачитуватися уголос, бо ніхто ж не має жодних таємниць. Але чи дійсно все так було, як говорили присутні...


Тривалість: 01:39:39
Якість:
Відео:
кодек:
розмір кадру: 1280 х 536
бітрейт: 6318 кб/с

Аудіо:
мова: польська, італійська
переклад: оригінал
кодек: 5.1
бітрейт: 640 кб/с

Субтитри:
мова: українська
тип: програмні (м'які)
формат: *.srt
переклад: любительський з оригіналу ivan vyrvyvuho

Субтитри:
мова: польська
тип: програмні (м'які)
формат: *.srt
Скріншоти





Медіаінфо
General
Unique ID : 268042005465593761850547925449645521489 (0xC9A7033119FBD705172C8C0A4A2C7A51)
Complete name : D:\торент\(nie)znajomi (2019) [Pol,Sub Ukr,Pol] 720p.
Format :
Format version : Version 4
File size : 4.85 GiB
Duration : 1 h 39 min
Overall bit rate mode : Variable
Overall bit rate : 6 961 kb/s
Encoded date : UTC 2020-07-04 07:07:44
Writing application : v43.0.0 ('The Quartermaster') 64-bit
Writing library : libebml v1.3.10 + v1.5.2
Encoding Gui : Hybrid 2020.01.11.1

Video
ID : 2
Format : AVC
Format/Info : Advanced Video Codec
Format profile : [email protected]
Format settings : CABAC / 3 Ref Frames
Format settings, CABAC : Yes
Format settings, Reference : 3 frames
Codec ID : V_MPEG4/ISO/AVC
Duration : 1 h 39 min
Bit rate mode : Variable
Bit rate : 6 318 kb/s
Maximum bit rate : 11.2 Mb/s
Width : 1 280 pixels
Height : 536 pixels
Display aspect ratio : 2.40:1
Frame rate mode : Constant
Frame rate : 25.000 FPS
Color space : YUV
Chroma subsampling : 4:2:0
Bit depth : 8 bits
Scan type : Progressive
Bits/(Pixel*Frame) : 0.368
Stream size : 4.40 GiB (91%)
Default : Yes
Forced : Yes

Audio
ID : 3
Format : AC-3
Format/Info : Audio Coding 3
Commercial name : Dolby Digital
Codec ID : A_AC3
Duration : 1 h 39 min
Bit rate mode : Constant
Bit rate : 640 kb/s
Channel(s) : 6 channels
Channel layout : L R C LFE Ls Rs
Sampling rate : 48.0 kHz
Frame rate : 31.250 FPS (1536 SPF)
Bit depth : 16 bits
Compression mode : Lossy
Stream size : 456 MiB (9%)
Language : Polish
Service kind : Complete Main
Default : No
Forced : No

Text #1
ID : 1
Format : UTF-8
Codec ID : S_TEXT/UTF8
Codec ID/Info : UTF-8 Plain Text
Duration : 1 h 34 min
Bit rate : 99 b/s
Count of elements : 1410
Stream size : 69.3 KiB (0%)
Title : Ukr
Language : Ukrainian
Default : Yes
Forced : Yes

Text #2
ID : 4
Format : UTF-8
Codec ID : S_TEXT/UTF8
Codec ID/Info : UTF-8 Plain Text
Duration : 1 h 34 min
Bit rate : 67 b/s
Count of elements : 1405
Stream size : 47.1 KiB (0%)
Language : Polish
Default : No
Forced : No

Джерело: &
Особиста оцінка: 8 - мені сподобалося


Золотий реліз (завантажене не впливає на рейтинг)
 Трекер:    Зареєстрований   

Завантажити / скачати фільм українською



відео для новачків



 Зареєстрований:   2020-07-05 11:25
 Розмір:   4.85 GB 
 Оцінка фільму:   7.6/10 (Голосів: 5)
   
TroSer 
VIP


З нами з: 11.09.13
Востаннє: 01.12.20
Повідомлень: 304

2020-07-06 17:11  
І як воно? Не дуже люблю адаптації, особливо коли оригінальний фільм сподобався.
bohdk 
Відео Гуртом - субтитрування
Відео Гуртом - субтитрування


З нами з: 23.10.09
Востаннє: 03.12.20
Повідомлень: 741

2020-07-06 21:10  
TroSer
Цитата:
І як воно?

Та якось так. Як і очікувалось. Якщо подобаються актори, зайняті у фільмі, то перетерпиш. Happy

Ваш часовий пояс: GMT + 2 Години

Нова тема   Відповісти