Іван Княженко та Сірий Вовк / Иван Царевич и Серый Волк (2011) 720p

Нові коментарі

Нова тема   Відповісти
Автор Повідомлення
staf777 
Відео Гуртом - підтримка та поширення
Відео Гуртом - підтримка та поширення


З нами з: 16.11.16
Востаннє: 27.02.21
Повідомлень: 5063

2020-07-05 09:50  
Іван Княженко та Сірий Вовк / Иван Царевич и Серый Волк (2011) 720p

Іван Княженко та Сірий Вовк / Иван Царевич и Серый Волк (2011) 720p


Жанр: анімація, дитячий, комедія
Країна: Росія



Кінокомпанія: Мельниця СТВ
Режисер: Володимир Торопчин
Актори: Микита Єфремов, Тетяна Буніна, Артур Смольянинов, Іван Охлобистін, Віктор Сухоруков, Олександр Боярський, Михайло Боярськи, Олена Шульман, Христина Асмус, Лія Ахеджакова, Сергій Русскін, Сергій Гармаш, Олег Куликович, Костянтин Бронзит, Анатолій Петров, Леньков Олександр

Сюжет:
В деякому царстві, у деякій державі жила-була Василина, царська дочка. І всім була хороша Василиса — і красива, і розумна, та тільки заміж виходити не хотіла, думала ще трохи повчитися. Отримати третю освіту. І вирішив тоді цар видати її за першого зустрічного… яким надається Іван з сусіднього царства… Але скоро казка мовиться, та не скоро діло робиться, непросто виявилося стати чоловіком царської дочки, потрібно ще пройти казкове випробування. І відправився Іван зі своїм помічником Сірим Вовком в подорож по тридев'ятому царству. А наказав цар-батюшка піти Івану туди «не знаю — куди» та знайти «то, не знаю що».


Тривалість: 01:26:03
Якість:
Відео:
кодек:
розмір кадру: 1280x720
бітрейт: 3521 кб/с

Аудіо:
мова: українська
переклад: професійний дубльований | Новий канал, ICTV
кодек: 2.0
бітрейт: 192 кб/с
примітка: запис з DVB-T2, спектр 18 кГц
Info
General
Unique ID : 228719570421399994051012737108478967424 (0xAC11C975D486FF48BCFCC1D9E386BE80)
Complete name : Z:\Мультфільми в HD\Іван Княженко та Сірий Вовк (2011) 720p [Hurtom].
Format :
Format version : Version 4
File size : 2.23 GiB
Duration : 1 h 26 min
Overall bit rate : 3 712 kb/s
Movie name : Іван Княженко та Сірий Вовк / Иван Царевич и Серый Волк (2011) 720p [Hurtom]
Encoded date : UTC 2020-07-05 10:39:13
Writing application : v46.0.0 ('No Deeper Escape') 64-bit
Writing library : libebml v1.3.10 + v1.5.2
Cover : Yes
Attachments : cover.jpg

Video
ID : 1
Format : AVC
Format/Info : Advanced Video Codec
Format profile : [email protected]
Format settings : CABAC / 12 Ref Frames
Format settings, CABAC : Yes
Format settings, Reference : 12 frames
Codec ID : V_MPEG4/ISO/AVC
Duration : 1 h 26 min
Bit rate : 3 521 kb/s
Width : 1 280 pixels
Height : 720 pixels
Display aspect ratio : 16:9
Frame rate mode : Constant
Frame rate : 23.976 FPS
Color space : YUV
Chroma subsampling : 4:2:0
Bit depth : 8 bits
Scan type : Progressive
Bits/(Pixel*Frame) : 0.159
Stream size : 2.11 GiB (95%)
Writing library : core 119 r2106 07efeb4
Encoding settings : cabac=1 / ref=12 / deblock=1:0:0 / analyse=0x3:0x113 / me=umh / subme=9 / psy=1 / psy_rd=0.80:0.00 / mixed_ref=1 / me_range=32 / chroma_me=1 / trellis=2 / 8x8dct=1 / cqm=0 / deadzone=21,11 / fast_pskip=0 / chroma_qp_offset=-2 / threads=6 / sliced_threads=0 / nr=0 / decimate=1 / interlaced=0 / bluray_compat=0 / constrained_intra=0 / bframes=7 / b_pyramid=2 / b_adapt=2 / b_bias=0 / direct=3 / weightb=1 / open_gop=0 / weightp=2 / keyint=250 / keyint_min=23 / scenecut=40 / intra_refresh=0 / rc_lookahead=60 / rc=2pass / mbtree=1 / bitrate=3521 / ratetol=1.0 / qcomp=0.60 / qpmin=0 / qpmax=69 / qpstep=4 / cplxblur=20.0 / qblur=0.5 / ip_ratio=1.40 / aq=1:0.90
Language : Russian
Default : Yes
Forced : No

Audio
ID : 2
Format : AC-3
Format/Info : Audio Coding 3
Commercial name : Dolby Digital
Codec ID : A_AC3
Duration : 1 h 26 min
Bit rate mode : Constant
Bit rate : 192 kb/s
Channel(s) : 2 channels
Channel layout : L R
Sampling rate : 48.0 kHz
Frame rate : 31.250 FPS (1536 SPF)
Compression mode : Lossy
Stream size : 118 MiB (5%)
Title : Дубляж [Tretyakoff Production]
Language : Ukrainian
Service kind : Complete Main
Default : Yes
Forced : Yes

Menu
00:00:00.000 : ru:00:00:00.000
00:08:25.088 : ru:00:08:25.088
00:15:22.213 : ru:00:15:22.213
00:22:22.591 : ru:00:22:22.591
00:29:26.098 : ru:00:29:26.098
00:36:14.672 : ru:00:36:14.672
00:45:18.090 : ru:00:45:18.090
00:53:35.963 : ru:00:53:35.963
01:00:50.605 : ru:01:00:50.605
01:06:58.306 : ru:01:06:58.306
01:14:15.409 : ru:01:14:15.409
01:21:14.828 : ru:01:21:14.828
Скріншоти
Джерело:


 Трекер:    Зареєстрований   

Завантажити / скачати мультфільм українською



відео для новачків



 Зареєстрований:   2020-07-05 12:50
 Розмір:   2.23 GB 
 Оцінка мультфільму:   2.8/10 (Голосів: 10)
   
bot 
робот


З нами з: 30.09.07
Востаннє: 26.05.05
Повідомлень: 27271

2020-07-05 09:50  
Тему перенесено з Мультфільми в HD до форуму Анонси релізів


staf777

bot 
робот


З нами з: 30.09.07
Востаннє: 26.05.05
Повідомлень: 27271

2020-07-05 12:49  
Тему перенесено з Анонси релізів до форуму Мультфільми в HD


staf777

utopia1369 
Новенький


З нами з: 27.11.12
Востаннє: 27.02.21
Повідомлень: 2

2020-07-05 13:19  
Muchas Gracias!!!
Мій син дуже любить український переклад.
Дякую вам!!!!!

Ваш часовий пояс: GMT + 2 Години

Нова тема   Відповісти