Зломники сердець (Змова) / I Heart Huckabees (2004) 720p 2xUkr/Eng | Sub Eng

Нові коментарі

Нова тема   Відповісти
Автор Повідомлення
Anonymous 







2020-07-05 09:53  
Зломники сердець (Змова) / I Heart Huckabees (2004) 720p 2xUkr/Eng | Sub Eng

Зломники сердець (Змова) / I Heart Huckabees (2004) 720p 2xUkr/Eng | Sub Eng


Жанр: комедія, драма
Країна: США, Німеччина



Кінокомпанія: Fox Searchlight Pictures
Режисер: Девід О. Расселл / David O. Russell
Актори: Джейсон Шварцман, Ізабель Юппер, Дастін Хоффман, Лілі Томлін, Джуд Лоу, Марк Волберг, Наомі Воттс, Анджела Грілло, Хер Дуані, Дарлен Хант, Джона Хілл, Айла Фішер

Сюжет:
Сімейна пара Джефів вирішила стати детективами з вирішення особистих емоційних проблем. Їх перший клієнт - Альберт Марковські, замучений страхами з приводу майбутньої кар'єри в популярній роздрібній мережі. У процесі розслідування Джефи знайомляться з колегами і близькими Альберта і розуміють, що всі вони теж потребують їхньої допомоги ...


Тривалість: 01:46:40
Якість: 720p
Відео:
кодек:
розмір кадру: 1280x542
бітрейт: 3860 кб/с

Аудіо # 1:
мова: українська
переклад: багатоголосий закадровий
кодек: 2.0
бітрейт: 192 кб/с

Аудіо # 2:
мова: українська
переклад: двоголосий закадровий
кодек: 2.0 (з 5.1)
бітрейт: 192 кб/с

Аудіо # 3:
мова: англійська
переклад: оригінал
кодек: 5.1
бітрейт: 448 кб/с

Аудіо # 4:
мова: англійська
переклад: оригінал (коментарі режисера)
кодек: 2.0
бітрейт: 65 кб/с

Аудіо # 5:
мова: англійська
переклад: оригінал (коментарі Девіда О. Расселла, Джейсона Шварцмана, Марка Уолберга і Наомі Уоттс)
кодек: 2.0
бітрейт: 65 кб/с

Субтитри:
мова: англійська
тип: програмні (м'які)
формат: *.srt
Info
General
Unique ID : 210657100839907975114332287086015571548 (0x9E7B14F42827FFE299BF1AC44E50665C)
Complete name : E:\Toloka\2020\I Heart Huckabees (2004) 720p.
Format :
Format version : Version 4
File size : 3.66 GiB
Duration : 1 h 46 min
Overall bit rate : 4 908 kb/s
Encoded date : UTC 2020-07-05 06:48:36
Writing application : v6.1.0 ('Old Devil') built on Mar 4 2013 09:10:42
Writing library : libebml v1.3.0 + v1.4.0

Video
ID : 1
Format : AVC
Format/Info : Advanced Video Codec
Format profile : [email protected]
Format settings : 2 Ref Frames
Format settings, CABAC : No
Format settings, Reference : 2 frames
Codec ID : V_MPEG4/ISO/AVC
Duration : 1 h 46 min
Width : 1 280 pixels
Height : 542 pixels
Display aspect ratio : 2.35:1
Frame rate mode : Constant
Frame rate : 23.976 FPS
Color space : YUV
Chroma subsampling : 4:2:0
Bit depth : 8 bits
Scan type : Progressive
Language : English
Default : Yes
Forced : No
Color range : Limited
Color primaries : BT.709
Transfer characteristics : BT.709
Matrix coefficients : BT.709
Duration_Source : General_Duration

Audio #1
ID : 2
Format : AC-3
Format/Info : Audio Coding 3
Commercial name : Dolby Digital
Codec ID : A_AC3
Duration : 1 h 46 min
Bit rate mode : Constant
Bit rate : 192 kb/s
Channel(s) : 2 channels
Channel layout : L R
Sampling rate : 48.0 kHz
Frame rate : 31.250 FPS (1536 SPF)
Compression mode : Lossy
Stream size : 147 MiB (4%)
Title : UKR (K1)
Language : Ukrainian
Service kind : Complete Main
Default : Yes
Forced : Yes
Duration_Source : General_Duration

Audio #2
ID : 3
Format : AC-3
Format/Info : Audio Coding 3
Commercial name : Dolby Digital
Codec ID : A_AC3
Duration : 1 h 46 min
Bit rate mode : Constant
Bit rate : 192 kb/s
Channel(s) : 2 channels
Channel layout : L R
Sampling rate : 48.0 kHz
Frame rate : 31.250 FPS (1536 SPF)
Compression mode : Lossy
Stream size : 147 MiB (4%)
Title : UKR (1+1)
Language : Ukrainian
Service kind : Complete Main
Default : No
Forced : No
Duration_Source : General_Duration

Audio #3
ID : 4
Format : AC-3
Format/Info : Audio Coding 3
Commercial name : Dolby Digital
Codec ID : A_AC3
Duration : 1 h 46 min
Bit rate mode : Constant
Bit rate : 448 kb/s
Channel(s) : 6 channels
Channel layout : L R C LFE Ls Rs
Sampling rate : 48.0 kHz
Frame rate : 31.250 FPS (1536 SPF)
Compression mode : Lossy
Stream size : 342 MiB (9%)
Title : ENG
Language : English
Service kind : Complete Main
Default : No
Forced : No
Duration_Source : General_Duration

Audio #4
ID : 5
Format : LC SBR
Format/Info : Advanced Audio Codec Low Complexity with Spectral Band Replication
Commercial name : HE-
Format settings : Explicit
Codec ID : A_AAC-2
Duration : 1 h 46 min
Channel(s) : 2 channels
Channel layout : L R
Sampling rate : 48.0 kHz
Frame rate : 23.438 FPS (2048 SPF)
Compression mode : Lossy
Delay relative to video : 31 ms
Title : commentary by david o. russell
Language : English
Default : No
Forced : No
Duration_Source : General_Duration

Audio #5
ID : 6
Format : LC SBR
Format/Info : Advanced Audio Codec Low Complexity with Spectral Band Replication
Commercial name : HE-
Format settings : Explicit
Codec ID : A_AAC-2
Duration : 1 h 46 min
Channel(s) : 2 channels
Channel layout : L R
Sampling rate : 48.0 kHz
Frame rate : 23.438 FPS (2048 SPF)
Compression mode : Lossy
Delay relative to video : 31 ms
Title : commentary by david o. russell, jason schwartzman, mark wahlberg and naomi watts
Language : English
Default : No
Forced : No
Duration_Source : General_Duration

Text
ID : 7
Format : UTF-8
Codec ID : S_TEXT/UTF8
Codec ID/Info : UTF-8 Plain Text
Title : ENG
Language : English
Default : No
Forced : No

Menu
00:00:00.000 : en:you rock, rock
00:03:47.000 : en:vivian & bernard jaffe
00:08:04.000 : en:the blanket
00:12:56.000 : en:the investigation begins
00:17:20.000 : en:tommy's crisis
00:20:54.000 : en:brad, dawn & huckabees
00:24:07.000 : en:how to save the marsh
00:26:52.000 : en:he chopped her head off
00:31:51.000 : en:brad, albert & the detectives
00:34:21.000 : en:albert meets his other
00:40:31.000 : en:the african guy's family
00:47:20.000 : en:albert & tommy kicked out
00:50:35.000 : en:caterine vauban
00:54:57.000 : en:home of the coincidence
00:59:34.000 : en:tiny particles vs. tiny cracks
01:01:57.000 : en:quantity not quality
01:06:57.000 : en:the ball thing
01:11:13.000 : en:miss huckabees goes down
01:17:03.000 : en:human drama, tommy
01:19:48.000 : en:how am i not myself?
01:27:32.000 : en:destruction/creation
01:33:31.000 : en:convergence
01:39:41.000 : en:no manure, no magic
01:41:38.000 : en:end titles
Скріншоти








За постер подяка п. bilenkuyboy
За запис звуку з каналу К1 подяка п. Bohdan237
За доріжку №2 подяка п. MAKAPOHHIK
Особиста подяка пану denixx за надану матеріальну допомогу на підтримку цього і майбутніх релізів.

Джерело:


Срібний реліз (на рейтинг впливає 50% завантаженого)
 Трекер:    Зареєстрований   

Завантажити / скачати фільм українською



відео для новачків



 Зареєстрований:   2020-07-05 09:53
 Розмір:   3.66 GB 
 Оцінка фільму:   9.3/10 (Голосів: 6)
   
Інші релізи
   Змова / I Heart Huckabees (2004) Ukr/Eng MAKAPOHHIK  3 / 0   1.99 GB   2010-04-30 15:02 
lpershyi 
Попереджень: 2
Попереджень: 2 


З нами з: 04.01.11
Востаннє: 29.08.20
Повідомлень: 2865

2020-07-05 21:28  
На п'ятому відбитку титри іноземною російською, для чого вона тут і хто поставив "реліз перевірено"?

Релізоре "відсутнє"!
Якщо тут популяризація русифікованого відеоряду, чому немає застереження?

Anonymous 







2020-07-05 22:22  
lpershyi
ну що ти розкричався? Немає там рус. сабів. Заспокойся. Скріни робив коли ще не вирізав весь непотріб і не побачив саби.

lpershyi 
Попереджень: 2
Попереджень: 2 


З нами з: 04.01.11
Востаннє: 29.08.20
Повідомлень: 2865

2020-07-07 00:23  
Релізоре "відсутнє"!
Звернення та написання запитання – це не крики.

Дякую, що хтось припинив популяризацію іноземної російської та стер 5 відбиток відеофайла в писі до релізу, прошу ще тут від ""Релізор "відсутнє" припинити популяризацію непотребу - іноземну російську!

Ваш часовий пояс: GMT + 2 Години

Нова тема   Відповісти