Вірус. Нульовий пацієнт / Cabin Fever. Patient Zero (2014) 720p Ukr/Eng | Sub Eng

Нові коментарі

Нова тема   Відповісти
Автор Повідомлення
staf777 
Відео Гуртом - підтримка та поширення
Відео Гуртом - підтримка та поширення


З нами з: 16.11.16
Востаннє: 27.09.20
Повідомлень: 4053

2020-07-05 06:55  
Вірус. Нульовий пацієнт / Cabin Fever. Patient Zero (2014) 720p Ukr/Eng | Sub Eng



Жанр: жахи, наукова фантастика
Країна: США



Кінокомпанія: Film002 , Indomina Group , Indomina Productions
Режисер: Кааре Ендрюс
Актори: Шон Астін, Керрі Грем, Райан Доуньо, Брандо Ітон, Джилліан Мюррей, Мітч Райан, Соллі Дуран, Лідія Герст та інші

Сюжет:
Молода компанія відправляється на Карибські острови, щоб відтягнутися перед весіллям одного з друзів. Але на березі блакитного океану, серед вічного літа і райського блаженства хлопці виявляють осередок смертоносної хвороби ... Незабаром починається відлік жертв ... Чи вдасться кому-небудь вижити?...


Тривалість: 01:34:50
Якість:
Відео:
кодек:
розмір кадру: 1280x534
бітрейт: 5685 кб/с

Аудіо # 1:
мова: українська
переклад: багатоголосий закадровий
кодек: 5.1
бітрейт: 384 кб/с

Аудіо # 2:
мова: англійська
переклад: оригінал
кодек: 5.1
бітрейт: 448 кб/с

Субтитри:
мова: англійська
тип: програмні (м'які)
формат: *.srt
Info
General
Unique ID : 182982762130187427334782306359261469542 (0x89A932B5FB55642C3AE1D06CCDA71B66)
Complete name : Z:\Фільми в HD\Жахи\Cabin Fever. Patient Zero (2014) 720p [UKR_ENG] [Hurtom].
Format :
Format version : Version 4
File size : 4.32 GiB
Duration : 1 h 34 min
Overall bit rate : 6 519 kb/s
Movie name : Вірус. Нульовий пацієнт / Cabin Fever. Patient Zero (2014) 720p [UKR_ENG] [Hurtom]
Encoded date : UTC 2020-07-05 12:33:58
Writing application : v46.0.0 ('No Deeper Escape') 64-bit
Writing library : libebml v1.3.10 + v1.5.2
Cover : Yes
Attachments : cover.jpg

Video
ID : 1
Format : AVC
Format/Info : Advanced Video Codec
Format profile : [email protected]
Format settings : CABAC / 12 Ref Frames
Format settings, CABAC : Yes
Format settings, Reference : 12 frames
Codec ID : V_MPEG4/ISO/AVC
Duration : 1 h 34 min
Bit rate : 5 685 kb/s
Width : 1 280 pixels
Height : 534 pixels
Display aspect ratio : 2.40:1
Frame rate mode : Constant
Frame rate : 23.976 (23976/1000) FPS
Color space : YUV
Chroma subsampling : 4:2:0
Bit depth : 8 bits
Scan type : Progressive
Bits/(Pixel*Frame) : 0.347
Stream size : 3.77 GiB (87%)
Title : Sisendrovich(R)
Writing library : core 159 r2991 1771b55
Encoding settings : cabac=1 / ref=12 / deblock=1:-1:-1 / analyse=0x3:0x133 / me=tesa / subme=11 / psy=1 / psy_rd=1.00:0.00 / mixed_ref=1 / me_range=32 / chroma_me=1 / trellis=2 / 8x8dct=1 / cqm=0 / deadzone=21,11 / fast_pskip=0 / chroma_qp_offset=-2 / threads=17 / lookahead_threads=2 / sliced_threads=0 / nr=0 / decimate=0 / interlaced=0 / bluray_compat=0 / constrained_intra=0 / bframes=8 / b_pyramid=2 / b_adapt=2 / b_bias=0 / direct=3 / weightb=1 / open_gop=0 / weightp=2 / keyint=240 / keyint_min=23 / scenecut=40 / intra_refresh=0 / rc_lookahead=60 / rc=2pass / mbtree=0 / bitrate=5685 / ratetol=1.0 / qcomp=0.70 / qpmin=0 / qpmax=69 / qpstep=4 / cplxblur=20.0 / qblur=0.5 / vbv_maxrate=50000 / vbv_bufsize=62500 / nal_hrd=none / filler=0 / ip_ratio=1.40 / pb_ratio=1.30 / aq=3:0.90
Language : English
Default : Yes
Forced : No

Audio #1
ID : 2
Format : AC-3
Format/Info : Audio Coding 3
Commercial name : Dolby Digital
Codec ID : A_AC3
Duration : 1 h 34 min
Bit rate mode : Constant
Bit rate : 384 kb/s
Channel(s) : 6 channels
Channel layout : L R C LFE Ls Rs
Sampling rate : 48.0 kHz
Frame rate : 31.250 FPS (1536 SPF)
Compression mode : Lossy
Stream size : 260 MiB (6%)
Language : Ukrainian
Service kind : Complete Main
Default : Yes
Forced : Yes

Audio #2
ID : 3
Format : AC-3
Format/Info : Audio Coding 3
Commercial name : Dolby Digital
Codec ID : A_AC3
Duration : 1 h 34 min
Bit rate mode : Constant
Bit rate : 448 kb/s
Channel(s) : 6 channels
Channel layout : L R C LFE Ls Rs
Sampling rate : 48.0 kHz
Frame rate : 31.250 FPS (1536 SPF)
Compression mode : Lossy
Stream size : 304 MiB (7%)
Language : English
Service kind : Complete Main
Default : No
Forced : No

Text
ID : 4
Format : UTF-8
Codec ID : S_TEXT/UTF8
Codec ID/Info : UTF-8 Plain Text
Duration : 1 h 32 min
Bit rate : 39 b/s
Count of elements : 790
Stream size : 26.6 KiB (0%)
Language : English
Default : No
Forced : No

Menu
00:00:00.000 : en:Chapter 01
00:06:05.948 : en:Chapter 02
00:13:14.001 : en:Chapter 03
00:19:10.941 : en:Chapter 04
00:31:37.020 : en:Chapter 05
00:44:44.973 : en:Chapter 06
00:51:47.979 : en:Chapter 07
01:01:09.582 : en:Chapter 08
01:11:24.363 : en:Chapter 09
01:18:23.907 : en:Chapter 10
01:27:55.937 : en:Chapter 11
01:31:44.957 : en:Chapter 12


Постер mrgalser Доріжка -_-B_Е_N_D_E_R-_-
Джерело:


 Трекер:    Зареєстрований   

Завантажити / скачати фільм українською



відео для новачків



 Зареєстрований:   2020-07-05 15:40
 Розмір:   4.32 GB 
 Оцінка фільму:   10/10 (Голосів: 5)
   
bot 
робот


З нами з: 30.09.07
Востаннє: 26.05.05
Повідомлень: 25634

2020-07-05 15:40  
Тему перенесено з Анонси релізів до форуму Фільми в HD


staf777

Ваш часовий пояс: GMT + 2 Години

Нова тема   Відповісти