Фунт плоті / Pound Of Flesh (2015) 720p 2xUkr/Eng | Sub Eng

Нові коментарі

Нова тема   Відповісти
Автор Повідомлення
staf777 
Відео Гуртом - підтримка та поширення
Відео Гуртом - підтримка та поширення


З нами з: 16.11.16
Востаннє: 18.09.20
Повідомлень: 4018

2020-07-04 21:50  
Фунт плоті / Pound Of Flesh (2015) 720p 2xUkr/Eng | Sub Eng

Фунт плоті / Pound Of Flesh (2015) 720p 2xUkr/Eng | Sub Eng


Жанр: екшн, кримінальний
Країна: Канада



Кінокомпанія: ACE Film Company, ACE Studios, Daro Film Distribution
Режисер: Ерні Барбараш / Ernie Barbarash
Актори: Жан-Клод Ван Дамм / Jean-Claude Van Damme, Джон Ралстон / John Ralston, Акі Алеонг / Aki Aleong, Шарлотта Пітерс / Charlotte Peters та інші

Сюжет:
Колишній спецназівець Дікен Лайл прокидається у льодяній ванній весь у крові з жахливим шрамом на тілі.. Виявляється, що він став жертвою викрадачів органів, котрі забрали у нього нирку. Герой вирішує самостійно покарати злочинців. Але на їх пошуки зовсім мало часу, адже його нирку можуть продати, а вона життєво необхідна племінниці Дікена. Дівчина знаходиться на межі життя та смерті, врятувати її може лише Лайл…


Тривалість: 01:44:24
Якість:
Відео:
кодек:
розмір кадру: 1280x720
бітрейт: 7 784 кб/с

Аудіо # 1:
мова: українська
переклад: багатоголосий закадровий
кодек: 2.0
бітрейт: 192 кб/с

Аудіо # 2: ,
мова: українська
переклад: багатоголосий закадровий
кодек: 2.0
бітрейт: 192 кб/с

Аудіо # 3:
мова: англійська
переклад: оригінал
кодек: 5.1
бітрейт: 448 кб/с

Субтитри (Full):
мова: англійська
тип: програмні (м'які)
формат: *.srt
Info
General
Unique ID : 85839610406198853027065961290567953099 (0x40941B8C4D38D0E513A7975825E6AACB)
Complete name : Z:\Фільми в HD\Єкшн\Pound Of Flesh (2015) 720p [2xUKR_ENG] [Hurtom].
Format :
Format version : Version 4
File size : 6.29 GiB
Duration : 1 h 44 min
Overall bit rate : 8 619 kb/s
Movie name : Фунт плоті / Pound Of Flesh (2015) 720p [2xUKR_ENG] [Hurtom]
Encoded date : UTC 2020-07-05 06:33:20
Writing application : v46.0.0 ('No Deeper Escape') 64-bit
Writing library : libebml v1.3.10 + v1.5.2
Cover : Yes
Attachments : cover.jpg

Video
ID : 1
Format : AVC
Format/Info : Advanced Video Codec
Format profile : [email protected]
Format settings : CABAC / 9 Ref Frames
Format settings, CABAC : Yes
Format settings, Reference : 9 frames
Codec ID : V_MPEG4/ISO/AVC
Duration : 1 h 44 min
Bit rate : 7 784 kb/s
Width : 1 280 pixels
Height : 720 pixels
Display aspect ratio : 16:9
Frame rate mode : Constant
Frame rate : 23.976 (24000/1001) FPS
Color space : YUV
Chroma subsampling : 4:2:0
Bit depth : 8 bits
Scan type : Progressive
Bits/(Pixel*Frame) : 0.352
Stream size : 5.68 GiB (90%)
Writing library : core 142 r2431+42 c69a006 tMod [[email protected] X86_64]
Encoding settings : cabac=1 / ref=9 / deblock=1:-3:-3 / analyse=0x3:0x133 / me=umh / subme=10 / psy=1 / fade_compensate=0.00 / psy_rd=1.05:0.00 / mixed_ref=1 / me_range=24 / chroma_me=1 / trellis=2 / 8x8dct=1 / cqm=0 / deadzone=21,11 / fast_pskip=0 / chroma_qp_offset=-2 / threads=24 / lookahead_threads=4 / sliced_threads=0 / nr=0 / decimate=0 / interlaced=0 / bluray_compat=0 / constrained_intra=0 / fgo=0 / bframes=8 / b_pyramid=2 / b_adapt=2 / b_bias=0 / direct=3 / weightb=1 / open_gop=0 / weightp=2 / keyint=250 / keyint_min=23 / scenecut=40 / intra_refresh=0 / rc=crf / mbtree=0 / crf=17.2000 / qcomp=0.65 / qpmin=0:0:0 / qpmax=69:69:69 / qpstep=4 / ip_ratio=1.30 / pb_ratio=1.20 / aq=3:0.80 / aq-sensitivity=10.00 / aq-factor=1.00:1.00:1.00 / aq2=0 / aq3=0
Language : English
Default : Yes
Forced : No

Audio #1
ID : 2
Format : AC-3
Format/Info : Audio Coding 3
Commercial name : Dolby Digital
Codec ID : A_AC3
Duration : 1 h 44 min
Bit rate mode : Constant
Bit rate : 192 kb/s
Channel(s) : 2 channels
Channel layout : L R
Sampling rate : 48.0 kHz
Frame rate : 31.250 FPS (1536 SPF)
Compression mode : Lossy
Stream size : 143 MiB (2%)
Title : MVO [AMC], 2.0 [stereo] 192 Kbps
Language : Ukrainian
Service kind : Complete Main
Default : Yes
Forced : Yes

Audio #2
ID : 3
Format : AC-3
Format/Info : Audio Coding 3
Commercial name : Dolby Digital
Codec ID : A_AC3
Duration : 1 h 44 min
Bit rate mode : Constant
Bit rate : 192 kb/s
Channel(s) : 2 channels
Channel layout : L R
Sampling rate : 48.0 kHz
Frame rate : 31.250 FPS (1536 SPF)
Compression mode : Lossy
Stream size : 143 MiB (2%)
Title : MVO [ICTV], 2.0 192 Kbps
Language : Ukrainian
Service kind : Complete Main
Default : No
Forced : No

Audio #3
ID : 4
Format : AC-3
Format/Info : Audio Coding 3
Commercial name : Dolby Digital
Codec ID : A_AC3
Duration : 1 h 44 min
Bit rate mode : Constant
Bit rate : 448 kb/s
Channel(s) : 6 channels
Channel layout : L R C LFE Ls Rs
Sampling rate : 48.0 kHz
Frame rate : 31.250 FPS (1536 SPF)
Compression mode : Lossy
Stream size : 335 MiB (5%)
Title : Original, 5.1 448 kbps
Language : English
Service kind : Complete Main
Default : No
Forced : No

Text
ID : 5
Format : UTF-8
Codec ID : S_TEXT/UTF8
Codec ID/Info : UTF-8 Plain Text
Duration : 1 h 38 min
Bit rate : 42 b/s
Count of elements : 831
Stream size : 30.4 KiB (0%)
Title : Full
Language : English
Default : No
Forced : No

Menu
00:00:00.000 : en:00:00:00.000
00:07:08.762 : en:00:07:08.762
00:12:44.555 : en:00:12:44.555
00:26:53.654 : en:00:26:53.654
00:31:38.772 : en:00:31:38.772
00:43:34.987 : en:00:43:34.987
00:53:56.358 : en:00:53:56.358
01:03:47.782 : en:01:03:47.782
01:14:44.397 : en:01:14:44.397
01:23:51.985 : en:01:23:51.985
01:34:51.811 : en:01:34:51.811
01:39:59.118 : en:01:39:59.118
Скріншоти
Джерело:


 Трекер:    Зареєстрований   

Завантажити / скачати фільм українською



відео для новачків



 Зареєстрований:   2020-07-05 09:43
 Розмір:   6.29 GB 
 Оцінка фільму:   8.8/10 (Голосів: 4)
   
Інші релізи
   Фунт плоті / Pound Of Flesh (2015) AVC 2xUkr/Eng | Sub Eng Maters  5 / 0   2.31 GB   2020-06-27 11:51 
   Фунт плоті / Pound Of Flesh (2015) Electroz  4 / 0   1.46 GB   2017-02-06 23:02 
bot 
робот


З нами з: 30.09.07
Востаннє: 26.05.05
Повідомлень: 25542

2020-07-05 09:43  
Тему перенесено з Анонси релізів до форуму Фільми в HD


staf777

друг_лис 
Новенький


З нами з: 06.05.10
Востаннє: 16.09.20
Повідомлень: 9

2020-07-11 17:07  
Третьосортний фільм
Ваш часовий пояс: GMT + 2 Години

Нова тема   Відповісти