Формула 1. Сезон 2020. Етап 1. Гран-Прі Австрії. Кваліфікація (04.07.2020) IPTV 720p Ukr/Eng

Нові коментарі

Нова тема   Відповісти
Автор Повідомлення
sergiyko.5 
Забанено
Забанено


З нами з: 25.02.16
Востаннє: 29.10.20
Повідомлень: 3651

2020-07-04 17:58  
Формула 1. Сезон 2020. Етап 1. Гран-Прі Австрії. Кваліфікація (04.07.2020) IPTV 720p Ukr/Eng


Формула 1. Сезон 2020. Етап 1. Гран-Прі Австрії. Кваліфікація (04.07.2020) IPTV 720p Ukr/Eng

Жанр: Перегони Формули 1
Країна: Австрія
Телеканал: F1 TV
Коментар: Максим Подзігун (1), SkySports F1 (2)

Опис:
Кваліфікація першого етапу Гран-Прі Австрії 2020 року.


Якість: IPTV

Відео:кодек: розмір кадру: 1280 х 720 бітрейт: 5500 кб/с
Аудіо 1: мова: українська кодек: 2.0 бітрейт: 192 кб/с
Аудіо 2: мова: англійська кодек: 2.0 бітрейт: 128 кб/с
Тривалість:
01:12:37
Про файл:
General
Unique ID : 38745683114775782152498564121368155876 (0x1D2625AA7C39BB96AE32597B2F0756E4)
Complete name : D:\Documents\Torrents\F1.2020.01.Austria.Qualifying.720p.IPTV.Ukr.Eng.
Format :
Format version : Version 4
File size : 2.94 GiB
Duration : 1 h 12 min
Overall bit rate : 5 790 kb/s
Movie name : rip by sergiyko
Encoded date : UTC 2020-07-04 15:54:17
Writing application : v47.0.0 ('Black Flag') 64-bit
Writing library : libebml v1.3.10 + v1.5.2

Video
ID : 1
Format : AVC
Format/Info : Advanced Video Codec
Format profile : [email protected]
Format settings : CABAC / 4 Ref Frames
Format settings, CABAC : Yes
Format settings, Reference : 4 frames
Codec ID : V_MPEG4/ISO/AVC
Duration : 1 h 12 min
Bit rate mode : Constant
Bit rate : 5 472 kb/s
Width : 1 280 pixels
Height : 720 pixels
Display aspect ratio : 16:9
Frame rate mode : Constant
Frame rate : 59.940 (60000/1001) FPS
Color space : YUV
Chroma subsampling : 4:2:0
Bit depth : 8 bits
Scan type : Progressive
Bits/(Pixel*Frame) : 0.099
Stream size : 2.77 GiB (94%)
Language : English
Default : Yes
Forced : No

Audio #1
ID : 2
Format : AC-3
Format/Info : Audio Coding 3
Commercial name : Dolby Digital
Codec ID : A_AC3
Duration : 1 h 12 min
Bit rate mode : Constant
Bit rate : 192 kb/s
Channel(s) : 2 channels
Channel layout : L R
Sampling rate : 48.0 kHz
Frame rate : 31.250 FPS (1536 SPF)
Compression mode : Lossy
Delay relative to video : -1 s 77 ms
Stream size : 99.7 MiB (3%)
Language : Ukrainian
Service kind : Complete Main
Default : Yes
Forced : Yes

Audio #2
ID : 3
Format : LC
Format/Info : Advanced Audio Codec Low Complexity
Codec ID : A_AAC-2
Duration : 1 h 12 min
Bit rate : 125 kb/s
Channel(s) : 2 channels
Channel layout : L R
Sampling rate : 48.0 kHz
Frame rate : 46.875 FPS (1024 SPF)
Compression mode : Lossy
Delay relative to video : -1 s 77 ms
Stream size : 65.1 MiB (2%)
Language : English
Default : No
Forced : No
Скріншоти:


Запис/зведення: sergiyko



 Трекер:    Зареєстрований   

Завантажити / скачати торрент



відео для новачків



 Зареєстрований:   2020-07-04 17:58
 Розмір:   2.94 GB 
 Оцінка:   10/10 (Голосів: 20)
   
VicCob 
Свій


З нами з: 16.06.10
Востаннє: 25.10.20
Повідомлень: 58

2020-07-04 21:00  
Дякую!
Dossik 
Новенький


З нами з: 17.05.17
Востаннє: 05.09.20
Повідомлень: 15

2020-07-05 16:53  
Нарешті!Дивимось і насолоджуємось!
Ваш часовий пояс: GMT + 2 Години

Нова тема   Відповісти