А ось і Поллі / І прийшла Поллі / Along Came Polly (2004) 720p 2xUkr/Eng | Sub Ukr/Eng

Нові коментарі

Нова тема   Відповісти
Автор Повідомлення
Anonymous 







2020-07-04 16:05  
А ось і Поллі / І прийшла Поллі / Along Came Polly (2004) 720p 2xUkr/Eng | Sub Ukr/Eng

А ось і Поллі / І прийшла Поллі / Along Came Polly (2004) 720p 2xUkr/Eng | Sub Ukr/Eng


Жанр: комедія
Країна: США



Кінокомпанія: Jersey Films
Режисер: Джон Гамбург
Актори: Бен Стіллер, Дженніфер Аністон, Брайан Браун, Алек Болдуїн, Філіп Сеймур Хоффман

Сюжет:
Герою цієї картини, страховому експерту Рубену Фефферу, крупно не пощастило: він «застукав» свою молоду дружину з накачаним інструктором з підводного плавання прямо під час медового місяця! І тепер всі плани на щасливе майбутнє з жінкою мрії, які Рубен пестив і плекав, полетіли в тартарари!
Але несподівано, на горизонті невтішного Феффера, з'являється давня знайома на ім'я Поллі, з якою він дружив в дитинстві, і яка перетворилася на чарівну дівчину. Наш "рогоносець" вирішує розвіяти смуток і «позалицятися» до чарівної Поллі! Однак він не припускав, яке родео на нього чекає!
Отже, зустрічайте двох учасників романтичних відносин! У лівому кутку: скромник Рубен Феффер - обережний педант зі слабким шлунком; у правому - Поллі Прінс - «відірвиглова», суперенергійна любителька всього екстремального, у тому числі і неймовірно гострої кухні! Отже, хто ж отримає перемогу в цьому вирішальному, романтичному поєдинку?


Тривалість: 01:30:10
Якість: 720p
Відео:
кодек:
розмір кадру: 1280x694
бітрейт: 5564 кб/с

Аудіо # 1:
мова: українська
переклад: багатоголосий закадровий , ,
кодек: 2.0
бітрейт: 192 кб/с

Аудіо # 2:
мова: українська
переклад: багатоголосий закадровий
кодек: 2.0
бітрейт: 192 кб/с
примітка: на кілька фраз, які були вилучені з трансляції каналу, накладена озвучка з першої доріжки

Аудіо # 3:
мова: англійська
переклад: оригінал
кодек: 5.1
бітрейт: 448 кб/с

Субтитри #1:
мова: українська
тип: програмні (м'які)
формат: *.srt

Субтитри #2:
мова: англійська
тип: програмні (м'які)
формат: *.srt
Info
General
Unique ID : 182969034361617353378435524064135976570 (0x89A68DE12EC69C7FB88EB3E4033D967A)
Complete name : E:\Toloka\2020\Along Came Polly (2004) 720p.
Format :
Format version : Version 4
File size : 4.11 GiB
Duration : 1 h 30 min
Overall bit rate : 6 527 kb/s
Encoded date : UTC 2020-07-04 14:06:24
Writing application : v6.1.0 ('Old Devil') built on Mar 4 2013 09:10:42
Writing library : libebml v1.3.0 + v1.4.0

Video
ID : 1
Format : AVC
Format/Info : Advanced Video Codec
Format profile : [email protected]
Format settings : CABAC / 9 Ref Frames
Format settings, CABAC : Yes
Format settings, Reference : 9 frames
Codec ID : V_MPEG4/ISO/AVC
Duration : 1 h 30 min
Bit rate : 5 565 kb/s
Width : 1 280 pixels
Height : 694 pixels
Display aspect ratio : 1.85:1
Frame rate mode : Constant
Frame rate : 23.976 (24000/1001) FPS
Color space : YUV
Chroma subsampling : 4:2:0
Bit depth : 8 bits
Scan type : Progressive
Bits/(Pixel*Frame) : 0.261
Stream size : 3.50 GiB (85%)
Writing library : core 146 r2538 121396c
Encoding settings : cabac=1 / ref=9 / deblock=1:-3:-2 / analyse=0x3:0x113 / me=umh / subme=11 / psy=1 / psy_rd=1.00:0.15 / mixed_ref=1 / me_range=32 / chroma_me=1 / trellis=2 / 8x8dct=1 / cqm=0 / deadzone=21,11 / fast_pskip=0 / chroma_qp_offset=-3 / threads=6 / lookahead_threads=1 / sliced_threads=0 / nr=0 / decimate=1 / interlaced=0 / bluray_compat=0 / constrained_intra=0 / bframes=10 / b_pyramid=2 / b_adapt=2 / b_bias=0 / direct=1 / weightb=1 / open_gop=0 / weightp=2 / keyint=230 / keyint_min=23 / scenecut=40 / intra_refresh=0 / rc_lookahead=40 / rc=crf / mbtree=0 / crf=19.1 / qcomp=0.60 / qpmin=0 / qpmax=69 / qpstep=4 / vbv_maxrate=62500 / vbv_bufsize=78125 / crf_max=0.0 / nal_hrd=none / filler=0 / ip_ratio=1.40 / pb_ratio=1.30 / aq=1:1.00
Language : English
Default : Yes
Forced : No
Duration_Source : General_Duration

Audio #1
ID : 2
Format : AC-3
Format/Info : Audio Coding 3
Commercial name : Dolby Digital
Codec ID : A_AC3
Duration : 1 h 30 min
Bit rate mode : Constant
Bit rate : 192 kb/s
Channel(s) : 2 channels
Channel layout : L R
Sampling rate : 48.0 kHz
Frame rate : 31.250 FPS (1536 SPF)
Compression mode : Lossy
Stream size : 124 MiB (3%)
Title : UKR (НЛО-ТБ, 1+1, ТРК Україна)
Language : Ukrainian
Service kind : Complete Main
Default : Yes
Forced : Yes
Duration_Source : General_Duration

Audio #2
ID : 3
Format : AC-3
Format/Info : Audio Coding 3
Commercial name : Dolby Digital
Codec ID : A_AC3
Duration : 1 h 30 min
Bit rate mode : Constant
Bit rate : 192 kb/s
Channel(s) : 2 channels
Channel layout : L R
Sampling rate : 48.0 kHz
Frame rate : 31.250 FPS (1536 SPF)
Compression mode : Lossy
Stream size : 124 MiB (3%)
Title : UKR (Новий)
Language : Ukrainian
Service kind : Complete Main
Default : No
Forced : No
Duration_Source : General_Duration

Audio #3
ID : 4
Format : AC-3
Format/Info : Audio Coding 3
Commercial name : Dolby Digital
Codec ID : A_AC3
Duration : 1 h 30 min
Bit rate mode : Constant
Bit rate : 448 kb/s
Channel(s) : 6 channels
Channel layout : L R C LFE Ls Rs
Sampling rate : 48.0 kHz
Frame rate : 31.250 FPS (1536 SPF)
Compression mode : Lossy
Stream size : 289 MiB (7%)
Title : ENG
Language : English
Service kind : Complete Main
Default : No
Forced : No
Duration_Source : General_Duration

Text #1
ID : 5
Format : UTF-8
Codec ID : S_TEXT/UTF8
Codec ID/Info : UTF-8 Plain Text
Title : UKR (Netflix)
Language : Ukrainian
Default : Yes
Forced : No

Text #2
ID : 6
Format : UTF-8
Codec ID : S_TEXT/UTF8
Codec ID/Info : UTF-8 Plain Text
Title : ENG
Language : English
Default : No
Forced : No
Скріншоти







За доріжки подяка п.: РОМЕО, Givi, xslim, Arsenfpu
За субтитри подяка п. leicheman
Особиста подяка пану denixx за надану матеріальну допомогу на підтримку цього і майбутніх релізів.
Джерело:


Срібний реліз (на рейтинг впливає 50% завантаженого)
 Трекер:    Зареєстрований   

Завантажити / скачати фільм українською



відео для новачків



 Зареєстрований:   2020-07-04 17:10
 Розмір:   4.11 GB 
 Оцінка фільму:   10/10 (Голосів: 4)
   
Ваш часовий пояс: GMT + 2 Години

Нова тема   Відповісти