Віґілантка / A Vigilante (2018) 720p Ukr/Eng | Sub Eng

Нові коментарі

Нова тема   Відповісти
Автор Повідомлення
staf777 
Відео Гуртом - підтримка та поширення
Відео Гуртом - підтримка та поширення


З нами з: 16.11.16
Востаннє: 29.09.20
Повідомлень: 4069

2020-07-04 09:12  
Віґілантка / A Vigilante (2018) 720p Ukr/Eng | Sub Eng

Віґілантка / A Vigilante (2018) 720p Ukr/Eng | Sub Eng


Жанр: кримінальний, драма, детектив, трилер
Країна: США



Кінокомпанія: Emmett/Furla/Oasis Films (EFO Films), Pulse Films, Film Science, Uncorked Productions, Badlands Entertainment, MoviePass Films, The Long Run
Режисер: Сара Даґґар-Ніксон / Sarah Daggar-Nickson
Актори: Олівія Вайлд / Olivia Wilde, Морган Спектор / Morgan Spector, Кайл Кетлетт / Kyle Catlett, Тоні Патано / Tonye Patano, Бетсі Ейдем / Betsy Aidem, Джуді Март / Judy Marte та ін.

Сюжет:
Фільм розповідає про вігілантку, яка допомагає жертвам домашнього насилля. Вона бере правосуддя в свої руки і починає методично розбиратися з негідниками. Але робота карательниці не так проста, а старі шрами і рани ще дадуть про себе знати.


Тривалість: 01:31:04
Якість: 720p
Відео:
кодек:
розмір кадру: 1280x694
бітрейт: 7138 кб/с

Аудіо # 1:
мова: українська
переклад: багатоголосий закадровий
кодек: 2.0
бітрейт: 192 кб/с

Аудіо # 2:
мова: англійська
переклад: оригінал
кодек: 5.1
бітрейт: 448 кб/с

Субтитри (Full, SDH):
мова: англійська
тип: програмні (м'які)
формат: *.srt
Info
General
Unique ID : 144453110642958215990373763426217932351 (0x6CACA839FB1075604445A22234D8B63F)
Complete name : Z:\Фільми в HD\Трилер\A Vigilante (2018) 720p [UKR_ENG] [Hurtom].
Format :
Format version : Version 4
File size : 4.95 GiB
Duration : 1 h 31 min
Overall bit rate : 7 780 kb/s
Movie name : Віґілантка / A Vigilante (2018) 720p [UKR_ENG] [Hurtom]
Encoded date : UTC 2020-07-04 07:01:17
Writing application : v46.0.0 ('No Deeper Escape') 64-bit
Writing library : libebml v1.3.10 + v1.5.2
Cover : Yes
Attachments : cover.jpg

Video
ID : 1
Format : AVC
Format/Info : Advanced Video Codec
Format profile : [email protected]
Format settings : CABAC / 9 Ref Frames
Format settings, CABAC : Yes
Format settings, Reference : 9 frames
Codec ID : V_MPEG4/ISO/AVC
Duration : 1 h 31 min
Bit rate : 7 138 kb/s
Width : 1 280 pixels
Height : 694 pixels
Display aspect ratio : 1.85:1
Frame rate mode : Constant
Frame rate : 23.976 (24000/1001) FPS
Color space : YUV
Chroma subsampling : 4:2:0
Bit depth : 8 bits
Scan type : Progressive
Bits/(Pixel*Frame) : 0.335
Stream size : 4.54 GiB (92%)
Title : playHD
Writing library : core 146 r2538 121396c
Encoding settings : cabac=1 / ref=9 / deblock=1:-3:-3 / analyse=0x3:0x133 / me=umh / subme=10 / psy=1 / psy_rd=1.00:0.00 / mixed_ref=1 / me_range=32 / chroma_me=1 / trellis=2 / 8x8dct=1 / cqm=0 / deadzone=21,11 / fast_pskip=0 / chroma_qp_offset=-2 / threads=12 / lookahead_threads=2 / sliced_threads=0 / nr=0 / decimate=0 / interlaced=0 / bluray_compat=0 / constrained_intra=0 / bframes=8 / b_pyramid=2 / b_adapt=2 / b_bias=0 / direct=3 / weightb=1 / open_gop=0 / weightp=2 / keyint=250 / keyint_min=23 / scenecut=40 / intra_refresh=0 / rc=crf / mbtree=0 / crf=16.5 / qcomp=0.60 / qpmin=0 / qpmax=69 / qpstep=4 / ip_ratio=1.35 / pb_ratio=1.25 / aq=3:0.80
Language : English
Default : Yes
Forced : No

Audio #1
ID : 2
Format : AC-3
Format/Info : Audio Coding 3
Commercial name : Dolby Digital
Codec ID : A_AC3
Duration : 1 h 31 min
Bit rate mode : Constant
Bit rate : 192 kb/s
Channel(s) : 2 channels
Channel layout : L R
Sampling rate : 48.0 kHz
Frame rate : 31.250 FPS (1536 SPF)
Compression mode : Lossy
Stream size : 125 MiB (2%)
Title : MVO [Volia CINE+], 2.0 [stereo] 192 Kbps
Language : Ukrainian
Service kind : Complete Main
Default : Yes
Forced : Yes

Audio #2
ID : 3
Format : AC-3
Format/Info : Audio Coding 3
Commercial name : Dolby Digital
Codec ID : A_AC3
Duration : 1 h 31 min
Bit rate mode : Constant
Bit rate : 448 kb/s
Channel(s) : 6 channels
Channel layout : L R C LFE Ls Rs
Sampling rate : 48.0 kHz
Frame rate : 31.250 FPS (1536 SPF)
Compression mode : Lossy
Stream size : 292 MiB (6%)
Title : Original, 5.1 448 kbps
Language : English
Service kind : Complete Main
Default : No
Forced : No

Text #1
ID : 4
Format : UTF-8
Codec ID : S_TEXT/UTF8
Codec ID/Info : UTF-8 Plain Text
Duration : 1 h 24 min
Bit rate : 21 b/s
Count of elements : 437
Stream size : 13.4 KiB (0%)
Title : Full
Language : English
Default : No
Forced : No

Text #2
ID : 5
Format : UTF-8
Codec ID : S_TEXT/UTF8
Codec ID/Info : UTF-8 Plain Text
Duration : 1 h 24 min
Bit rate : 28 b/s
Count of elements : 649
Stream size : 17.7 KiB (0%)
Title : SDH
Language : English
Default : No
Forced : No

Menu
00:00:00.000 : en:Chapter 01
00:03:41.138 : en:Chapter 02
00:12:33.252 : en:Chapter 03
00:16:13.139 : en:Chapter 04
00:21:27.036 : en:Chapter 05
00:26:54.279 : en:Chapter 06
00:31:13.914 : en:Chapter 07
00:38:22.717 : en:Chapter 08
00:45:25.681 : en:Chapter 09
00:48:27.988 : en:Chapter 10
00:55:48.971 : en:Chapter 11
00:58:34.720 : en:Chapter 12
01:08:25.977 : en:Chapter 13
01:10:26.389 : en:Chapter 14
01:15:58.971 : en:Chapter 15
01:23:39.806 : en:Chapter 16
Скріншоти
Джерело: &


 Трекер:    Зареєстрований   

Завантажити / скачати фільм українською



відео для новачків



 Зареєстрований:   2020-07-04 10:10
 Розмір:   4.95 GB 
 Оцінка фільму:   10/10 (Голосів: 3)
   
Інші релізи
   Віґілантка / A Vigilante (2018) 1080p Ukr/Eng | Sub Eng staf777  3 / 0   10.44 GB   2020-07-04 11:36 
   Віґілантка / A Vigilante (2018) AVC Ukr/Eng | Sub Eng Maters  9 / 0   1.71 GB   2020-07-02 23:22 
Orest 
Поважний учасник


З нами з: 11.06.08
Востаннє: 29.09.20
Повідомлень: 200

2020-07-04 10:49  
Ґуґл транслейт?
Bobus 
Новенький


З нами з: 28.02.10
Востаннє: 27.09.20
Повідомлень: 3

2020-07-05 20:51  
А назва "Месниця" не підходить ніяк ?
Ваш часовий пояс: GMT + 2 Години

Нова тема   Відповісти