Повернути Бена / Ben Is Back (2018) 1080p Ukr/Eng | Sub Eng

Нові коментарі

Нова тема   Відповісти
Автор Повідомлення
staf777 
Відео Гуртом - підтримка та поширення
Відео Гуртом - підтримка та поширення


З нами з: 16.11.16
Востаннє: 28.09.20
Повідомлень: 4062

2020-07-03 21:14  
Повернути Бена / Ben Is Back (2018) 1080p Ukr/Eng | Sub Eng


Жанр: драма
Країна: США



Кінокомпанія: Black Bear Pictures, Color Force, 30WEST
Режисер: Пітер Геджес / Peter Hedges
Актори: Джулія Робертс / Julia Roberts, Лукас Геджес / Lucas Hedges, Кортні Б. Венс / Courtney B. Vance, Кетрін Ньютон / Kathryn Newton, Девід Залдівар / David Zaldivar, Александра Парк / Alexandra Park та ін.

Сюжет:
Дев’ятнадцятирічний Бен свого часу чимало клопоту приніс найближчим людям — родині. Зараз він у переддень Святвечора втік із реабілітаційного центру з клятвами, що змінився і що він зараз зовсім інша людина. Мама на ім'я Холлі дуже рада бачити сина та приймає його з відкритими обіймами, хоча й побоюється його через минуле. Наступні 24 години покажуть дуже багато того, що приховано. Відкриється чимало таємниць, через які безмежна любов Холлі до сина пройде величезні випробування. Що би не сталося, мати зробить усе можливе, щоб урятувати Бена від усіх неприємностей.


Тривалість: 01:43:18
Якість: 1080p
Відео:
кодек:
розмір кадру: 1920x804
бітрейт: 8429 кб/с

Аудіо # 1:
мова: українська
переклад: багатоголосий закадровий
кодек: 2.0 [stereo]
бітрейт: 192 кб/с

Аудіо # 2:
мова: англійська
переклад: оригінал
кодек: 5.1
бітрейт: 448 кб/с

Субтитри:
мова: англійська
тип: програмні (м'які)
формат: *.srt
Info
General
Unique ID : 272623160220814748299308267676041977100 (0xCD194F8F4BCBC044CDBC6277B9839D0C)
Complete name : Z:\Фільми в HD\Драма\Ben Is Back (2018) 1080p [UKR_ENG] [Hurtom].
Format :
Format version : Version 4
File size : 6.54 GiB
Duration : 1 h 43 min
Overall bit rate : 9 061 kb/s
Movie name : Повернути Бена / Ben Is Back (2018) 1080p [UKR_ENG] [Hurtom]
Encoded date : UTC 2020-07-04 05:27:25
Writing application : v46.0.0 ('No Deeper Escape') 64-bit
Writing library : libebml v1.3.10 + v1.5.2
Cover : Yes
Attachments : cover.jpg

Video
ID : 1
Format : AVC
Format/Info : Advanced Video Codec
Format profile : [email protected]
Format settings : CABAC / 5 Ref Frames
Format settings, CABAC : Yes
Format settings, Reference : 5 frames
Codec ID : V_MPEG4/ISO/AVC
Duration : 1 h 43 min
Bit rate : 8 429 kb/s
Width : 1 920 pixels
Height : 804 pixels
Display aspect ratio : 2.40:1
Frame rate mode : Constant
Frame rate : 23.976 (24000/1001) FPS
Color space : YUV
Chroma subsampling : 4:2:0
Bit depth : 8 bits
Scan type : Progressive
Bits/(Pixel*Frame) : 0.228
Stream size : 6.07 GiB (93%)
Writing library : core 157 r2935 545de2f
Encoding settings : cabac=1 / ref=5 / deblock=1:-1:-1 / analyse=0x3:0x113 / me=umh / subme=11 / psy=1 / psy_rd=1.00:0.00 / mixed_ref=1 / me_range=32 / chroma_me=1 / trellis=2 / 8x8dct=1 / cqm=0 / deadzone=21,11 / fast_pskip=0 / chroma_qp_offset=-2 / threads=9 / lookahead_threads=2 / sliced_threads=0 / nr=0 / decimate=0 / interlaced=0 / bluray_compat=0 / constrained_intra=0 / bframes=14 / b_pyramid=2 / b_adapt=2 / b_bias=0 / direct=3 / weightb=1 / open_gop=0 / weightp=2 / keyint=240 / keyint_min=24 / scenecut=40 / intra_refresh=0 / rc_lookahead=120 / rc=2pass / mbtree=0 / bitrate=8429 / ratetol=1.0 / qcomp=0.70 / qpmin=0 / qpmax=69 / qpstep=4 / cplxblur=20.0 / qblur=0.5 / vbv_maxrate=50000 / vbv_bufsize=62500 / nal_hrd=none / filler=0 / ip_ratio=1.40 / pb_ratio=1.30 / aq=3:0.80
Language : English
Default : Yes
Forced : No
Color range : Limited
Color primaries : BT.709
Transfer characteristics : BT.709
Matrix coefficients : BT.709

Audio #1
ID : 2
Format : AC-3
Format/Info : Audio Coding 3
Commercial name : Dolby Digital
Codec ID : A_AC3
Duration : 1 h 43 min
Bit rate mode : Constant
Bit rate : 192 kb/s
Channel(s) : 2 channels
Channel layout : L R
Sampling rate : 48.0 kHz
Frame rate : 31.250 FPS (1536 SPF)
Compression mode : Lossy
Stream size : 142 MiB (2%)
Title : MVO [Volia CINE+], 2.0 [stereo] 192 Kbps
Language : Ukrainian
Service kind : Complete Main
Default : Yes
Forced : Yes

Audio #2
ID : 3
Format : AC-3
Format/Info : Audio Coding 3
Commercial name : Dolby Digital
Codec ID : A_AC3
Duration : 1 h 43 min
Bit rate mode : Constant
Bit rate : 448 kb/s
Channel(s) : 6 channels
Channel layout : L R C LFE Ls Rs
Sampling rate : 48.0 kHz
Frame rate : 31.250 FPS (1536 SPF)
Compression mode : Lossy
Stream size : 331 MiB (5%)
Title : Original, 5.1 448 kbps
Language : English
Service kind : Complete Main
Default : No
Forced : No

Text #1
ID : 4
Format : UTF-8
Codec ID : S_TEXT/UTF8
Codec ID/Info : UTF-8 Plain Text
Duration : 1 h 33 min
Bit rate : 56 b/s
Count of elements : 1532
Stream size : 38.6 KiB (0%)
Title : Full
Language : English
Default : No
Forced : No

Text #2
ID : 5
Format : UTF-8
Codec ID : S_TEXT/UTF8
Codec ID/Info : UTF-8 Plain Text
Duration : 1 h 34 min
Bit rate : 66 b/s
Count of elements : 1720
Stream size : 46.4 KiB (0%)
Title : SDH
Language : English
Default : No
Forced : No

Menu
00:00:00.000 : :Chapter 01
00:08:08.779 : :Chapter 02
00:13:19.298 : :Chapter 03
00:21:53.437 : :Chapter 04
00:27:45.372 : :Chapter 05
00:38:47.533 : :Chapter 06
00:43:14.049 : :Chapter 07
00:48:49.384 : :Chapter 08
00:52:47.122 : :Chapter 09
00:56:27.258 : :Chapter 10
01:02:52.310 : :Chapter 11
01:10:53.666 : :Chapter 12
01:15:55.384 : :Chapter 13
01:21:58.204 : :Chapter 14
01:27:27.784 : :Chapter 15
01:35:49.702 : :Chapter 16
Скріншоти
Джерело:


 Трекер:    Зареєстрований   

Завантажити / скачати фільм українською



відео для новачків



 Зареєстрований:   2020-07-04 08:50
 Розмір:   6.54 GB 
 Оцінка фільму:   9/10 (Голосів: 3)
   
Інші релізи
   Повернути Бена / Ben Is Back (2018) 720p Ukr/Eng | Sub Eng staf777  3 / 0   3.48 GB   2020-07-03 21:10 
   Повернути Бена / Ben Is Back (2018) AVC Ukr/Eng | Sub Eng Maters  10 / 0   1.77 GB   2020-07-02 23:32 
bot 
робот


З нами з: 30.09.07
Востаннє: 26.05.05
Повідомлень: 25643

2020-07-04 08:49  
Тему перенесено з Анонси релізів до форуму Фільми в HD


staf777

Ваш часовий пояс: GMT + 2 Години

Нова тема   Відповісти