Пітьма (Сезон 2) / Dark (Season 2) (2019) UHD 2160p 4K Ukr/Ger | Sub Eng/Ger

Нові коментарі

Нова тема   Відповісти
Автор Повідомлення
RoMeL 
Відео Гуртом - підтримка та поширення
Відео Гуртом - підтримка та поширення


З нами з: 09.07.08
Востаннє: 01.12.20
Повідомлень: 236

2020-07-02 20:52  
1 сезон: AVC | 1080p | 4K

2 сезон: AVC | 1080p | 4K

Пітьма (Сезон 2) / Dark (Season 2) (2019) UHD 2160p 4K Ukr/Ger | Sub Eng/Ger



Жанр: фантастика, драма, трилер
Країна: Німеччина, США



Кінокомпанія: Netflix, W&B Television
Режисери/творці: Баран бо Одар, Янт'є Фрізе
Актори: Луіс Гофманн, Олівер Мазуччі, Кароліна Айчгорн, Йордіс Трібель, Майя Шьоне, Штефан Кампвірт, Андреас Пітчманн, Дебора Кауфманн, Татя Зайбт та інші.

Сюжет:
Дія серіалу розгортається у вигаданому містечку Вінден, що в Німеччині, і розповідає історію чотирьох сімей, історії яких тісно переплітаються одна з одною, а також з минулим, сьогоденням і майбутнім Віндена.


Перекладено та озвучено студією НеЗупиняйПродакшн

Тривалість: 1 серія: ~50 хв. (цілком серій: 8)
Перелік серій
1. Початок і кінець / Anfänge und Enden
2. Темна матерія / Dunkle Materie
3. Привиди / Gespenster
4. Мандрівники / Die Reisenden
5. Загубити і знайти / Vom Suchen und Finden
6. Безкінечна петля / Ein unendlicher Kreis
7. Білий Диявол / Der weiße Teufel
8. Кінець і початок / Enden und Anfänge
Якість: 2160p
Відео:
кодек:
розмір кадру: 3840 х 1920
бітрейт: ~37 Мбіт/сек

Аудіо # 1:
мова: українська
переклад: професійний багатоголосий закадровий
кодек: 5.1
бітрейт: 640 кб/с

Озвучено студією НеЗупиняйПродакшн


Аудіо # 2:
мова: німецька
переклад: оригінал
кодек: E- 5.1 + Atmos
бітрейт: 640 кб/с

Субтитри # 1-2:
мова: німецька (SDH, Forced)
тип: програмні (м'які)
формат: *.srt

Субтитри # 3-4:
мова: англійська (SDH, Full)
тип: програмні (м'які)
формат: *.srt
Info

Код:
General
Unique ID                                : 164113481094960220725535191487836458967 (0x7B771B5416B2EC1FCFB1CEEC27020FD7)
Complete name                            : /Volumes/Download/Shows/Dark.S02.2019..2160p.[Ukr.Ger].[Hurtom]/Dark.S02E01.2019..2160p.[Ukr.Ger].[Hurtom].
Format                                   :
Format version                           : Version 4
File size                                : 14.4 GiB
Duration                                 : 53mn 56s
Overall bit rate                         : 38.3 Mbps
Movie name                               : Dark.S02E01.2019..2160p.[Ukr.Ger].[Hurtom]
Encoded date                             : UTC 2020-07-02 16:02:52
Writing application                      : v47.0.0 ('Black Flag') 64-bit
Writing library                          : libebml v1.3.10 + v1.5.2
Cover                                    : Yes
Attachments                              : cover.jpg

Video
ID                                       : 1
Format                                   : AVC
Format/Info                              : Advanced Video Codec
Format profile                           : [email protected]
Format settings                          : CABAC / 6 Ref Frames
Format settings, CABAC                   : Yes
Format settings, ReFrames                : 6 frames
Codec ID                                 : V_MPEG4/ISO/AVC
Duration                                 : 53mn 56s
Bit rate                                 : 37.0 Mbps
Width                                    : 3 840 pixels
Height                                   : 1 920 pixels
Display aspect ratio                     : 2.000
Frame rate mode                          : Constant
Frame rate                               : 24.000 fps
Color space                              : YUV
Chroma subsampling                       : 4:2:0
Bit depth                                : 8 bits
Scan type                                : Progressive
Bits/(Pixel*Frame)                       : 0.209
Stream size                              : 13.9 GiB (97%)
Writing library                          : core 152 r2851kMod ba24899
Encoding settings                        : cabac=1 / ref=6 / deblock=1:-3:-3 / analyse=0x3:0x133 / me=umh / subme=10 / psy=1 / fade_compensate=0.00 / psy_rd=1.00:0.00 / mixed_ref=1 / me_range=64 / chroma_me=1 / trellis=2 / 8x8dct=1 / cqm=0 / deadzone=21,11 / fast_pskip=0 / chroma_qp_offset=-2 / threads=12 / lookahead_threads=2 / sliced_threads=0 / nr=0 / decimate=0 / interlaced=0 / bluray_compat=0 / constrained_intra=0 / bframes=8 / b_pyramid=2 / b_adapt=2 / b_bias=0 / direct=3 / weightb=1 / open_gop=0 / weightp=2 / keyint=250 / keyint_min=24 / scenecut=40 / intra_refresh=0 / rc=crf / mbtree=0 / crf=17.0000 / qcomp=0.60 / qpmin=0 / qpmax=69 / qpstep=4 / ip_ratio=1.30 / pb_ratio=1.20 / aq=3:0.80
Language                                 : English
Default                                  : Yes
Forced                                   : No

Audio #1
ID                                       : 2
Format                                   : AC-3
Format/Info                              : Audio Coding 3
Commercial name                          : Dolby Digital
Codec ID                                 : A_AC3
Duration                                 : 53mn 56s
Bit rate mode                            : Constant
Bit rate                                 : 640 Kbps
Channel(s)                               : 6 channels
Channel layout                           : L R C LFE Ls Rs
Sampling rate                            : 48.0 KHz
Frame rate                               : 31.250 fps (1536 SPF)
Compression mode                         : Lossy
Stream size                              : 247 MiB (2%)
Title                                    : Українська (НеЗупиняйПродакшн)
Language                                 : Ukrainian
Service kind                             : Complete Main
Default                                  : Yes
Forced                                   : No

Audio #2
ID                                       : 3
Format                                   : E-AC-3
Format/Info                              : Enhanced AC-3
Commercial name                          : Dolby Digital Plus
Codec ID                                 : A_EAC3
Duration                                 : 53mn 56s
Bit rate mode                            : Constant
Bit rate                                 : 640 Kbps
Channel(s)                               : 6 channels
Channel layout                           : L R C LFE Ls Rs
Sampling rate                            : 48.0 KHz
Frame rate                               : 31.250 fps (1536 SPF)
Compression mode                         : Lossy
Stream size                              : 247 MiB (2%)
Title                                    : German
Language                                 : German
Service kind                             : Complete Main
Default                                  : No
Forced                                   : No

Text #1
ID                                       : 4
Format                                   : UTF-8
Codec ID                                 : S_TEXT/UTF8
Codec ID/Info                            : UTF-8 Plain Text
Duration                                 : 49mn 54s
Bit rate                                 : 40 bps
Count of elements                        : 468
Stream size                              : 14.9 KiB (0%)
Title                                    : SDH
Language                                 : German
Default                                  : No
Forced                                   : No

Text #2
ID                                       : 5
Format                                   : UTF-8
Codec ID                                 : S_TEXT/UTF8
Codec ID/Info                            : UTF-8 Plain Text
Duration                                 : 45mn 36s
Bit rate                                 : 1 bps
Count of elements                        : 20
Stream size                              : 527 Bytes (0%)
Language                                 : German
Default                                  : No
Forced                                   : No

Text #3
ID                                       : 6
Format                                   : UTF-8
Codec ID                                 : S_TEXT/UTF8
Codec ID/Info                            : UTF-8 Plain Text
Duration                                 : 50mn 10s
Bit rate                                 : 38 bps
Count of elements                        : 466
Stream size                              : 14.2 KiB (0%)
Title                                    : SDH
Language                                 : English
Default                                  : No
Forced                                   : No

Text #4
ID                                       : 7
Format                                   : UTF-8
Codec ID                                 : S_TEXT/UTF8
Codec ID/Info                            : UTF-8 Plain Text
Duration                                 : 50mn 4s
Bit rate                                 : 28 bps
Count of elements                        : 370
Stream size                              : 10.6 KiB (0%)
Language                                 : English
Default                                  : No
Forced                                   : No
Скріншоти






Джерело: &
Особиста оцінка: 10 - без зайвих вагань рекомендую всім!


Авторський реліз (завантажувати можна без реєстрації)
 Трекер:    Зареєстрований   

Завантажити / скачати серіал українською



відео для новачків



 Зареєстрований:   2020-07-02 20:52
 Розмір:   125.61 GB 
 Оцінка серіалу:   9.9/10 (Голосів: 17)
   
gera_b 
Новенький


З нами з: 15.10.10
Востаннє: 29.11.20
Повідомлень: 8

2020-07-20 12:29  
якість картинки і озвучка супер. Резинова арматура кумедна
11994455 
Попереджень: 2
Попереджень: 2 


З нами з: 07.04.14
Востаннє: 30.11.20
Повідомлень: 651

2020-07-22 20:04  
Ну що сказати ...
По 2 сезону - нормально продовжує 1 сезон. ті хто кричать що градус неадеквату росте - в 3 пояснять абсолютно все (навіть більше ніж треба)
Коментувати нічого, щоб зрозуміти все що тут відбувалось треба глянути 3 сезони ... Серіал загалом спайка Твін Пікс і Lost ... Єдине чим я задоволений - я зрозумів його, але дискутувати треба в коментах 3 сезону...

ImPeReVaL 
Новенький


З нами з: 23.08.17
Востаннє: 15.11.20
Повідомлень: 4

2020-09-10 16:29  
Круто!Порадьте щось схоже на це ))
cv_prosto_tak 
Новенький


З нами з: 17.03.18
Востаннє: 28.11.20
Повідомлень: 2

2020-09-26 18:33  
Дайте швидкості від щирого серця
Дуже дякую!

Ваш часовий пояс: GMT + 2 Години

Нова тема   Відповісти