Політ Фенікса / Flight of the Phoenix (2004) AVC Ukr/Eng | Sub Eng

Нові коментарі

Нова тема   Відповісти
Автор Повідомлення
staf777 
Відео Гуртом - підтримка та поширення
Відео Гуртом - підтримка та поширення


З нами з: 16.11.16
Востаннє: 05.08.20
Повідомлень: 3928

2020-07-02 19:50  
Політ Фенікса / Flight of the Phoenix (2004) AVC Ukr/Eng | Sub Eng

Політ Фенікса / Flight of the Phoenix (2004) AVC Ukr/Eng | Sub Eng


Жанр: пригодницький, драма, трилер, бойовик
Країна: США



Кінокомпанія: Twentieth Century Fox Film Corporation, Aldrich Group, Davis Entertainment
Режисер: Джон Мур
Актори: Денніс Квейд, Тайріз Гібсон, Джованні Рібізі, Міранда Отто, Тоні Каррен, Стікі Фінгаз, Джейкоб Варгас, Г'ю Лорі, Джаред Падаллекі, Скотт Майкл Кемпбелл

Сюжет:
Над пустелею Гобі вибухнула піщана буря, в яку примудрився потрапити вантажопасажирський літак. Він впав, в живих залишилося не більше дюжини чоловік. Води вистачить на кілька тижнів, їжа теж дозволить протягнути трохи, якщо сидіти і чекати підмоги. Стільниковий телефон мовчить, рація вбита. Якщо і існує спосіб вижити, то він в будівництві літака з того, що залишилося від колишнього. Благо, у команді є авіаконструктор


Тривалість: 01:52:57
Якість: AVC
Відео:
кодек:
розмір кадру: 1032x440
бітрейт: 1996 кб/с

Аудіо # 1:
мова: українська
переклад: багатоголосий закадровий
кодек: 2.0
бітрейт: 192 кб/с

Аудіо # 2:
мова: англійська
переклад: оригінал
кодек: 5.1
бітрейт: 384 кб/с

Джерело озвучення:


Субтитри:
мова: англійська
тип: програмні (м'які)
формат: *.srt
MI
General
Unique ID : 102013136000429836415882860921703893554 (0x4CBF03ECF4AADF2B8BC30346D2D80A32)
Complete name : Z:\Фільми AVC\Драма\Flight of the Phoenix (2004) AVC [UKR_ENG] [Hurtom] .
Format :
Format version : Version 4
File size : 2.03 GiB
Duration : 1 h 52 min
Overall bit rate : 2 573 kb/s
Movie name : Політ Фенікса / Flight of the Phoenix (2004) AVC [UKR_ENG] [Hurtom]
Encoded date : UTC 2020-07-02 16:30:54
Writing application : v46.0.0 ('No Deeper Escape') 64-bit
Writing library : libebml v1.3.10 + v1.5.2
Cover : Yes
Attachments : cover.jpg

Video
ID : 1
Format : AVC
Format/Info : Advanced Video Codec
Format profile : [email protected]
Format settings : CABAC / 9 Ref Frames
Format settings, CABAC : Yes
Format settings, Reference : 9 frames
Codec ID : V_MPEG4/ISO/AVC
Duration : 1 h 52 min
Bit rate : 1 996 kb/s
Width : 1 032 pixels
Height : 440 pixels
Display aspect ratio : 2.35:1
Original display aspect rat : 2.35:1
Frame rate mode : Constant
Frame rate : 23.976 (24000/1001) FPS
Color space : YUV
Chroma subsampling : 4:2:0
Bit depth : 8 bits
Scan type : Progressive
Bits/(Pixel*Frame) : 0.183
Stream size : 1.57 GiB (78%)
Title : Полет Феникса
Writing library : core 128 r2216M 198a7ea
Encoding settings : cabac=1 / ref=10 / deblock=1:-2:-1 / analyse=0x3:0x133 / me=umh / subme=9 / psy=1 / psy_rd=1.05:0.00 / mixed_ref=1 / me_range=48 / chroma_me=1 / trellis=2 / 8x8dct=1 / cqm=0 / deadzone=21,11 / fast_pskip=0 / chroma_qp_offset=-2 / threads=4 / lookahead_threads=1 / sliced_threads=0 / nr=0 / decimate=1 / interlaced=0 / bluray_compat=0 / constrained_intra=0 / bframes=12 / b_pyramid=1 / b_adapt=2 / b_bias=0 / direct=3 / weightb=1 / open_gop=0 / weightp=2 / keyint=240 / keyint_min=23 / scenecut=40 / intra_refresh=0 / rc_lookahead=150 / rc=2pass / mbtree=1 / bitrate=1996 / ratetol=1.0 / qcomp=0.67 / qpmin=0 / qpmax=69 / qpstep=4 / cplxblur=20.0 / qblur=0.5 / vbv_maxrate=20000 / vbv_bufsize=25000 / nal_hrd=none / ip_ratio=1.35 / aq=1:0.85
Language : English
Default : Yes
Forced : No

Audio #1
ID : 2
Format : AC-3
Format/Info : Audio Coding 3
Commercial name : Dolby Digital
Codec ID : A_AC3
Duration : 1 h 52 min
Bit rate mode : Constant
Bit rate : 192 kb/s
Channel(s) : 2 channels
Channel layout : L R
Sampling rate : 48.0 kHz
Frame rate : 31.250 FPS (1536 SPF)
Compression mode : Lossy
Stream size : 155 MiB (7%)
Title : [UKR-MVO-1+1]
Language : Ukrainian
Service kind : Complete Main
Default : Yes
Forced : Yes

Audio #2
ID : 3
Format : AC-3
Format/Info : Audio Coding 3
Commercial name : Dolby Digital
Codec ID : A_AC3
Duration : 1 h 52 min
Bit rate mode : Constant
Bit rate : 384 kb/s
Channel(s) : 6 channels
Channel layout : L R C LFE Ls Rs
Sampling rate : 48.0 kHz
Frame rate : 31.250 FPS (1536 SPF)
Compression mode : Lossy
Delay relative to video : 27 ms
Stream size : 310 MiB (15%)
Title : Original | DD 5.1 @ 384kbps
Language : English
Service kind : Complete Main
Default : No
Forced : No

Text
ID : 4
Format : UTF-8
Codec ID : S_TEXT/UTF8
Codec ID/Info : UTF-8 Plain Text
Duration : 1 h 47 min
Bit rate : 47 b/s
Count of elements : 1033
Stream size : 37.8 KiB (0%)
Language : English
Default : No
Forced : No


Запис з ТБ Bohdan237 Синхрон Arsenfpu Постер - kvvdvd
Джерело:


Срібний реліз (на рейтинг впливає 50% завантаженого)
 Трекер:    Зареєстрований   

Завантажити / скачати фільм українською



відео для новачків



 Зареєстрований:   2020-07-02 19:52
 Розмір:   2.03 GB 
 Оцінка фільму:   8.8/10 (Голосів: 12)
   
Інші релізи
Ваш часовий пояс: GMT + 2 Години

Нова тема   Відповісти