Том і Джеррі: Мотор (Том і Джеррі: Фільм) / Tom and Jerry: The Movie (1992) 1080p Ukr/Eng | Sub Eng

Нові коментарі

Нова тема   Відповісти
Автор Повідомлення
Anonymous 







2020-07-02 14:22  
Том і Джеррі: Мотор (Том і Джеррі: Фільм) / Tom and Jerry: The Movie (1992) 1080p Ukr/Eng | Sub Eng

Том і Джеррі: Мотор (Том і Джеррі: Фільм) / Tom and Jerry: The Movie (1992) 1080p Ukr/Eng | Sub Eng


Жанр: комедія, сімейний, мюзикл
Країна: США



Кінокомпанія: Warner Bros.
Режисер: Філ Роман / Phil Roman
Актори: Річард Кінд / Richard Kind, Дана Гілл / Dana Hill, Аннді МкАфі / Anndi McAfee, Тоні Джей / Tony Jay та інші

Сюжет:
Старий будинок, в якому жили Том і Джеррі, зносять, і нерозлучна парочка опиняється на вулиці. Там вони знаходять нових друзів і підтримують один одного, забувши всі колишні взаємні образи. І, коли Том і Джеррі намагаються допомогти їхньому найближчому другу Робін в пошуках її батька, у них на шляху встає попечителька дівчинки злісна тітонька Фігг і її огидні посіпаки: адвокат Лизоблюд, ненажерливий пес Фердинанд і викрадач домашніх тварин доктор Еплчік.


Тривалість: 01:23:30
Якість: 1080p
Відео:
кодек:
розмір кадру: 1920x1080
бітрейт: 8055 кб/с

Аудіо # 1:
мова: українська
переклад: багатоголосий закадровий
кодек: 2.0
бітрейт: 192 кб/с

Аудіо # 2:
мова: англійська
переклад: оригінал
кодек: 5.1
бітрейт: 384 кб/с

Субтитри:
мова: англійська
тип: програмні (м'які)
формат: *.srt
Info
General
Unique ID : 216977695659763759881917815291707953267 (0xA33C6256932BCD1BB84724B50E309073)
Complete name : E:\Toloka\2020\Tom and Jerry. The.Movie (1993) 1080p.
Format :
Format version : Version 4
File size : 5.14 GiB
Duration : 1 h 23 min
Overall bit rate mode : Variable
Overall bit rate : 8 806 kb/s
Encoded date : UTC 2020-07-02 12:13:24
Writing application : v6.1.0 ('Old Devil') built on Mar 4 2013 09:10:42
Writing library : libebml v1.3.0 + v1.4.0

Video
ID : 1
Format : AVC
Format/Info : Advanced Video Codec
Format profile : [email protected]
Format settings : CABAC / 4 Ref Frames
Format settings, CABAC : Yes
Format settings, Reference : 4 frames
Codec ID : V_MPEG4/ISO/AVC
Duration : 1 h 23 min
Bit rate mode : Variable
Bit rate : 8 055 kb/s
Maximum bit rate : 12.4 Mb/s
Width : 1 920 pixels
Height : 1 080 pixels
Display aspect ratio : 16:9
Frame rate mode : Constant
Frame rate : 23.976 (24000/1001) FPS
Color space : YUV
Chroma subsampling : 4:2:0
Bit depth : 8 bits
Scan type : Progressive
Bits/(Pixel*Frame) : 0.162
Stream size : 4.70 GiB (91%)
Default : Yes
Forced : No
Statistics Tags Issue : v48.0.0 ('Fortress Around Your Heart') 64-bit 2020-07-01 16:12:06 / v6.1.0 ('Old Devil') built on Mar 4 2013 09:10:42 2020-07-02 12:13:24
FromStats_BitRate : 8230890
FromStats_Duration : 01:23:29.672000000
FromStats_FrameCount : 120112
FromStats_StreamSize : 5154257731
Duration_Source : General_Duration

Audio #1
ID : 2
Format : AC-3
Format/Info : Audio Coding 3
Commercial name : Dolby Digital
Codec ID : A_AC3
Duration : 1 h 23 min
Bit rate mode : Constant
Bit rate : 192 kb/s
Channel(s) : 2 channels
Channel layout : L R
Sampling rate : 48.0 kHz
Frame rate : 31.250 FPS (1536 SPF)
Compression mode : Lossy
Stream size : 115 MiB (2%)
Title : UKR (Новий)
Language : Ukrainian
Service kind : Complete Main
Default : Yes
Forced : Yes
Duration_Source : General_Duration

Audio #2
ID : 3
Format : AC-3
Format/Info : Audio Coding 3
Commercial name : Dolby Digital
Codec ID : A_AC3
Duration : 1 h 23 min
Bit rate mode : Constant
Bit rate : 384 kb/s
Channel(s) : 2 channels
Channel layout : L R
Sampling rate : 48.0 kHz
Frame rate : 31.250 FPS (1536 SPF)
Compression mode : Lossy
Stream size : 229 MiB (4%)
Title : ENG
Language : English
Service kind : Complete Main
Default : No
Forced : No
Statistics Tags Issue : v48.0.0 ('Fortress Around Your Heart') 64-bit 2020-07-01 16:12:06 / v6.1.0 ('Old Devil') built on Mar 4 2013 09:10:42 2020-07-02 12:13:24
FromStats_BitRate : 384000
FromStats_Duration : 01:23:29.696000000
FromStats_FrameCount : 156553
FromStats_StreamSize : 240465408
Duration_Source : General_Duration

Text
ID : 4
Format : UTF-8
Codec ID : S_TEXT/UTF8
Codec ID/Info : UTF-8 Plain Text
Title : ENG
Language : English
Default : Yes
Forced : No
Statistics Tags Issue : v48.0.0 ('Fortress Around Your Heart') 64-bit 2020-07-01 16:12:06 / v6.1.0 ('Old Devil') built on Mar 4 2013 09:10:42 2020-07-02 12:13:24
FromStats_BitRate : 55
FromStats_Duration : 01:23:14.000000000
FromStats_FrameCount : 1240
FromStats_StreamSize : 34683
Скріншоти







За доріжку подяка п.: xslim, taraskill1
Особиста подяка пану denixx за надану матеріальну допомогу на підтримку цього і майбутніх релізів.
Джерело:


Срібний реліз (на рейтинг впливає 50% завантаженого)
 Трекер:    Зареєстрований   

Завантажити / скачати мультфільм українською



відео для новачків



 Зареєстрований:   2020-07-02 14:22
 Розмір:   5.14 GB 
 Оцінка мультфільму:   10/10 (Голосів: 3)
   
Інші релізи
Ваш часовий пояс: GMT + 2 Години

Нова тема   Відповісти