Спіть міцно / Sleep Tight / Mientras duermes (2011) 1080p Spa | Sub Ukr

Нові коментарі

Нова тема   Відповісти
Автор Повідомлення
Anonymous 







2020-07-01 22:50  
Спіть міцно / Sleep Tight / Mientras duermes (2011) 1080p Spa | Sub Ukr


"Ви впевнені, що живете одні?"




Жанр: драма, трилер
Країна: Іспанія



Кінокомпанія: Canal+ Espana, Castelao Producciones
Режисер: Хауме Балагуеро
Актори: Луїс Тосар, Марта Етура, Альберто Сан Хуан, Петра Мартінес та інші.
Бюджет: 5 000 000 $

Сюжет:
Сезар - портьє у багатоквартирному будинку. Він не скаржиться на свою роботу, бо вона розкриває для нього багато можливостей. Він знає все про власників квартир - і може в будь-який момент цими знаннями скористатися.

Тривалість: 01:40:45
Якість: 1080p
Відео:
Кодек:
Розмір кадру: 1920 x 816
Бітрейт: 12.9 Мбіт/с

Аудіо:
Мова: іспанська
Переклад: Оригінал
Кодек: 5.1
Бітрейт: 1509 Кбіт/с

Субтитри:
Мова: українська | Повні | (Завантажити з OpenSubtitles)
Тип: програмні (м'які)
Формат: *.srt
переклад з анг. мови: ninenine

Info


General
Unique ID : 123312640125304651501959455609818426670 (0x5CC5268EA18C8F9B81A441FB608FAD2E)
Format :
Format version : Version 4
File size : 10.1 GiB
Duration : 1 h 40 min
Overall bit rate : 14.4 Mb/s
Movie name : Спіть міцно / Sleep Tight / Mientras duermes (2011) 1080p [Spa][SubUkr] [Hurtom]
Encoded date : UTC 2020-07-01 19:59:11
Writing application : v46.0.0 ('No Deeper Escape') 64-bit
Writing library : libebml v1.3.10 + v1.5.2
Attachments : poster_spa.jpg

Video
ID : 1
Format : AVC
Format/Info : Advanced Video Codec
Format profile : [email protected]
Format settings : CABAC / 5 Ref Frames
Format settings, CABAC : Yes
Format settings, Reference fra : 5 frames
Codec ID : V_MPEG4/ISO/AVC
Duration : 1 h 40 min
Bit rate : 12.9 Mb/s
Width : 1 920 pixels
Height : 816 pixels
Display aspect ratio : 2.35:1
Frame rate mode : Constant
Frame rate : 24.000 FPS
Color space : YUV
Chroma subsampling : 4:2:0
Bit depth : 8 bits
Scan type : Progressive
Bits/(Pixel*Frame) : 0.343
Stream size : 9.08 GiB (90%)
Title : Sleep Tight. Mientras duermes (2011) 1080p
Writing library : core 157 r2935 545de2f
Encoding settings : cabac=1 / ref=5 / deblock=1:-3:-3 / analyse=0x3:0x133 / me=umh / subme=10 / psy=1 / psy_rd=1.00:0.00 / mixed_ref=1 / me_range=24 / chroma_me=1 / trellis=2 / 8x8dct=1 / cqm=0 / deadzone=21,11 / fast_pskip=0 / chroma_qp_offset=-2 / threads=18 / lookahead_threads=3 / sliced_threads=0 / nr=0 / decimate=1 / interlaced=0 / bluray_compat=0 / constrained_intra=0 / bframes=8 / b_pyramid=2 / b_adapt=2 / b_bias=0 / direct=3 / weightb=1 / open_gop=0 / weightp=2 / keyint=240 / keyint_min=24 / scenecut=40 / intra_refresh=0 / rc_lookahead=60 / rc=crf / mbtree=1 / crf=12.5 / qcomp=0.60 / qpmin=0 / qpmax=69 / qpstep=4 / vbv_maxrate=62500 / vbv_bufsize=78125 / crf_max=0.0 / nal_hrd=none / filler=0 / ip_ratio=1.40 / aq=1:1.00
Language : Spanish
Default : Yes
Forced : No
Color range : Limited
Color primaries : BT.709
Transfer characteristics : BT.709
Matrix coefficients : BT.709

Audio
ID : 2
Format :
Format/Info : Digital Theater Systems
Codec ID : A_DTS
Duration : 1 h 40 min
Bit rate mode : Constant
Bit rate : 1 509 kb/s
Channel(s) : 6 channels
Channel layout : C L R Ls Rs LFE
Sampling rate : 48.0 kHz
Frame rate : 93.750 FPS (512 SPF)
Bit depth : 16 bits
Compression mode : Lossy
Stream size : 1.06 GiB (10%)
Title : [Оригінал] 5.1 @ 1509 Кбіт/с
Language : Spanish
Default : Yes
Forced : No

Text
ID : 3
Format : UTF-8
Codec ID : S_TEXT/UTF8
Codec ID/Info : UTF-8 Plain Text
Duration : 1 h 36 min
Bit rate : 61 b/s
Count of elements : 929
Stream size : 43.0 KiB (0%)
Title : Повні
Language : Ukrainian
Default : Yes
Forced : No
Скріншоти









Джерело:


Золотий реліз (завантажене не впливає на рейтинг)
 Трекер:    Зареєстрований   

Завантажити / скачати фільм українською



відео для новачків



 Зареєстрований:   2020-07-01 22:50
 Розмір:   10.14 GB 
 Оцінка фільму:   7/10 (Голосів: 3)
   
Інші релізи
Ваш часовий пояс: GMT + 2 Години

Нова тема   Відповісти