Битва під Шейкер Хейтс / The Battle of Shaker Heights (2003) AVC Ukr/Eng | Sub Eng

Нові коментарі

Нова тема   Відповісти
Автор Повідомлення
Arsenfpu 
Відео Гуртом - фільмокрай
Відео Гуртом - фільмокрай


З нами з: 30.04.09
Востаннє: 05.08.20
Повідомлень: 7115

2020-07-01 22:16  
Битва під Шейкер Хейтс / The Battle of Shaker Heights (2003) AVC Ukr/Eng | Sub Eng

Битва під Шейкер Хейтс / The Battle of Shaker Heights (2003) AVC Ukr/Eng | Sub Eng


Жанр: комедія, пригодницький, драма
Країна: США



Кінокомпанія: Miramax Films , LivePlanet
Режисер: Ефрам Потелл, Кайл Ранкін
Актори: Шайа ЛаБаф, Рей Вайс, Елден Хенсон, Емі Смар,т Біллі Кей, Кетлін Квінлен.

Сюжет:
Келлі сімнадцять років, і він захоплений реконструкцією різних історичних битв. Але в реальному житті все дається йому не просто. Його давня подружка закохана в нього, а хлопцеві подобається зовсім інша дівчина, яка не відповідає йому взаємністю. А на додачу ще в школі у нього конфлікт з іншим учнем. І ось, заручившись підтримкою друга, він вирішує розставити все по своїх місцях.


Тривалість: 01:17:38
Якість:
Відео:
кодек:
розмір кадру: 1 024 х 576
бітрейт: 2 499 кб/с

Аудіо # 1:
мова: українська
переклад: багатоголосий закадровий
кодек: 2.0
бітрейт: 192 кб/с

Аудіо # 2:
мова: англійська
переклад: оригінал
кодек: 2.0
бітрейт: 192 кб/с

Субтитри:
мова: англійська
тип: програмні (м'які)
формат: *.srt
Скріншоти














Про файл
General
Unique ID : 181219062326897394608500678010023835042 (0x88558598CED849A11A5B71FF9711F5A2)
Complete name : C:\The Battle of Shaker Heights (2003) [Ukr,Eng] AVC [Hurtom].
Format :
Format version : Version 4 / Version 2
File size : 1.56 GiB
Duration : 1 h 17 min
Overall bit rate : 2 884 kb/s
Movie name : Битва під Шейкер Хейтс / The Battle of Shaker Heights (2003)
Encoded date : UTC 2020-07-01 18:45:28
Writing application : v21.0.0 ('Tardigrades Will Inherit The Earth') 32-bit
Writing library : libebml v1.3.5 + v1.4.8
Cover : Yes
Attachments : cover.jpg

Video
ID : 1
Format : AVC
Format/Info : Advanced Video Codec
Format profile : [email protected]
Format settings, CABAC : Yes
Format settings, ReFrames : 4 frames
Codec ID : V_MPEG4/ISO/AVC
Duration : 1 h 17 min
Bit rate : 2 499 kb/s
Width : 1 024 pixels
Height : 576 pixels
Display aspect ratio : 16:9
Frame rate mode : Constant
Frame rate : 23.976 (24000/1001) FPS
Color space : YUV
Chroma subsampling : 4:2:0
Bit depth : 8 bits
Scan type : Progressive
Bits/(Pixel*Frame) : 0.177
Stream size : 1.35 GiB (87%)
Writing library : core 157 r2935 545de2f
Encoding settings : cabac=1 / ref=3 / deblock=1:-1:-1 / analyse=0x3:0x113 / me=hex / subme=7 / psy=1 / psy_rd=1.00:0.15 / mixed_ref=1 / me_range=16 / chroma_me=1 / trellis=1 / 8x8dct=1 / cqm=0 / deadzone=21,11 / fast_pskip=1 / chroma_qp_offset=-3 / threads=12 / lookahead_threads=2 / sliced_threads=0 / nr=0 / decimate=1 / interlaced=0 / bluray_compat=0 / constrained_intra=0 / bframes=3 / b_pyramid=2 / b_adapt=1 / b_bias=0 / direct=1 / weightb=1 / open_gop=0 / weightp=2 / keyint=240 / keyint_min=23 / scenecut=40 / intra_refresh=0 / rc_lookahead=40 / rc=2pass / mbtree=1 / bitrate=2499 / ratetol=1.0 / qcomp=0.60 / qpmin=0 / qpmax=69 / qpstep=4 / cplxblur=20.0 / qblur=0.5 / ip_ratio=1.40 / aq=1:1.00
Default : Yes
Forced : No

Audio #1
ID : 2
Format : AC-3
Format/Info : Audio Coding 3
Mode extension : CM (complete main)
Format settings, Endianness : Big
Codec ID : A_AC3
Duration : 1 h 17 min
Bit rate mode : Constant
Bit rate : 192 kb/s
Channel(s) : 2 channels
Channel positions : Front: L R
Sampling rate : 48.0 kHz
Frame rate : 31.250 FPS (1536 spf)
Compression mode : Lossy
Stream size : 107 MiB (7%)
Title : amc
Language : Ukrainian
Default : Yes
Forced : Yes

Audio #2
ID : 3
Format : AC-3
Format/Info : Audio Coding 3
Mode extension : CM (complete main)
Format settings, Endianness : Big
Codec ID : A_AC3
Duration : 1 h 17 min
Bit rate mode : Constant
Bit rate : 192 kb/s
Channel(s) : 2 channels
Channel positions : Front: L R
Sampling rate : 48.0 kHz
Frame rate : 31.250 FPS (1536 spf)
Compression mode : Lossy
Stream size : 107 MiB (7%)
Language : English
Default : No
Forced : No

Text #1
ID : 4
Format : UTF-8
Codec ID : S_TEXT/UTF8
Codec ID/Info : UTF-8 Plain Text
Duration : 1 h 16 min
Bit rate : 69 b/s
Count of elements : 1343
Stream size : 38.8 KiB (0%)
Language : English
Default : Yes
Forced : No

Text #2
ID : 5
Format : UTF-8
Codec ID : S_TEXT/UTF8
Codec ID/Info : UTF-8 Plain Text
Duration : 1 h 17 min
Bit rate : 72 b/s
Count of elements : 1426
Stream size : 40.9 KiB (0%)
Language : English
Default : No
Forced : No
Джерело:
За українську доріжку дякую пану kryk-v.ya.
Особиста оцінка: не дивився


Срібний реліз (на рейтинг впливає 50% завантаженого)
 Трекер:    Зареєстрований   

Завантажити / скачати фільм українською



відео для новачків



 Зареєстрований:   2020-07-01 22:16
 Розмір:   1.56 GB 
 Оцінка фільму:   10/10 (Голосів: 3)
   
hetzendorf 
Попереджень: 2
Попереджень: 2 


З нами з: 23.07.15
Востаннє: 05.08.20
Повідомлень: 2842

2020-07-02 00:17  
Цитата:
Актори:

А Рея Вайса чого не додали?
Рей Вайс…
… це ж Ліланд Палмер із «Твін Пікса» ^__^

Ваш часовий пояс: GMT + 2 Години

Нова тема   Відповісти