Гретель і Гензель / Gretel & Hansel (2020) 720p Ukr/Eng | Sub Eng

Нові коментарі

Нова тема   Відповісти
Автор Повідомлення
staf777 
Відео Гуртом - підтримка та поширення
Відео Гуртом - підтримка та поширення


З нами з: 16.11.16
Востаннє: 19.09.20
Повідомлень: 4018

2020-07-01 19:27  
Гретель і Гензель / Gretel & Hansel (2020) 720p Ukr/Eng | Sub Eng

Гретель і Гензель / Gretel & Hansel (2020) 720p Ukr/Eng | Sub Eng


Жанр: фентезі, жахи, містика, трилер
Країна: Канад, США, Ірландія, ПАР



Кінокомпанія: Orion Pictures, BRON Studios, Automatik Entertainment
Режисер: Оз Перкінс / Oz Perkins
Актори: Софія Лілліс / Sophia Lillis, Семмі Лікі / Samuel Leakey, Еліс Кріґе / Alice Krige, Джессика Де Ґоу / Jessica De Gouw, Фіона О'шонессі / Fiona O'Shaughnessy, Доннча Краулі / Donncha Crowley, Джонатан Ґаннінґ / Jonathan Gunning, Чарльз Бабалола / Charles Babalola, Джонатан Делані Тайнен / Jonathan Delaney Tynan та інші.

Сюжет:
Багато-багато років тому в далекій майже казкової землі дівчинка підліткових років разом зі своїм маленьким братом пішли в темний ліс у надії знайти там їжу та хоч якусь роботу, яка могла би їх годувати надалі. Звати їх Гензель і Гретель. Звичайно ж, ви знаєте цю казку, де діти знайшли чарівний солодкий будиночок. Але це зовсім інша історія, адже Гретель і Гензель знайшли щось по-справжньому жахливе. Їх прихистила у себе стара жінка, яка не вселяє довіру дівчинці. І не дарма, адже гостинності від відьми не дочекаєшся. Краще би дітлахам у неї не затримуватися…


Тривалість: 01:27:20
Якість: 720p
Відео:
кодек:
розмір кадру: 1280x692
бітрейт: 7777 кб/с

Аудіо # 1:
мова: українська
переклад: професійний дубльований
кодек: 5.1
бітрейт: 1 509 кб/с

Аудіо # 2:
мова: українська
переклад: професійний дубльований
кодек: 5.1
бітрейт: 640 кб/с

Аудіо # 3:
мова: англійська
переклад: оригінал
кодек: 5.1
бітрейт: 640 кб/с

Субтитри:
мова: англійська
тип: програмні (м'які)
формат: *.srt
Info
Код:

General
Unique ID                   : 152741009611805007477307511407250334990 (0x72E8D931B534C1006F18786E1A3D650E)
Complete name               : Z:\Фільми в HD\Жахи\Gretel & Hansel (2020) 720p [UKR_ENG] [Hurtom].
Format                      :
Format version              : Version 4
File size                   : 6.44 GiB
Duration                    : 1 h 27 min
Overall bit rate            : 10.6 Mb/s
Movie name                  : Гретель і Гензель / Gretel & Hansel (2020) 720p [UKR_ENG] [Hurtom]
Encoded date                : UTC 2020-07-07 05:38:14
Writing application         : v46.0.0 ('No Deeper Escape') 64-bit
Writing library             : libebml v1.3.10 + v1.5.2
Cover                       : Yes
Attachments                 : cover.jpg

Video
ID                          : 1
Format                      : AVC
Format/Info                 : Advanced Video Codec
Format profile              : [email protected]
Format settings             : CABAC / 9 Ref Frames
Format settings, CABAC      : Yes
Format settings, Reference  : 9 frames
Codec ID                    : V_MPEG4/ISO/AVC
Duration                    : 1 h 27 min
Bit rate                    : 7 777 kb/s
Width                       : 1 280 pixels
Height                      : 692 pixels
Display aspect ratio        : 1.85:1
Frame rate mode             : Constant
Frame rate                  : 23.976 (24000/1001) FPS
Color space                 : YUV
Chroma subsampling          : 4:2:0
Bit depth                   : 8 bits
Scan type                   : Progressive
Bits/(Pixel*Frame)          : 0.366
Stream size                 : 4.74 GiB (74%)
Title                       : Encoded by seleZen
Writing library             : core 142 r2431+42 c69a006 tMod [[email protected] X86_64]
Encoding settings           : cabac=1 / ref=9 / deblock=1:-2:-2 / analyse=0x3:0x133 / me=umh / subme=10 / psy=1 / fade_compensate=0.00 / psy_rd=1.00:0.00 / mixed_ref=1 / me_range=32 / chroma_me=1 / trellis=2 / 8x8dct=1 / cqm=0 / deadzone=21,11 / fast_pskip=0 / chroma_qp_offset=-2 / threads=24 / lookahead_threads=4 / sliced_threads=0 / nr=0 / decimate=0 / interlaced=0 / bluray_compat=0 / constrained_intra=0 / fgo=0 / bframes=8 / b_pyramid=2 / b_adapt=2 / b_bias=0 / direct=3 / weightb=1 / open_gop=0 / weightp=2 / keyint=240 / keyint_min=23 / scenecut=40 / intra_refresh=0 / rc_lookahead=50 / rc=2pass / mbtree=0 / bitrate=7777 / ratetol=1.0 / qcomp=0.60 / qpmin=0:0:0 / qpmax=51:51:51 / qpstep=4 / cplxblur=20.0 / qblur=0.5 / vbv_maxrate=50000 / vbv_bufsize=62500 / nal_hrd=none / filler=0 / ip_ratio=1.40 / pb_ratio=1.30 / aq=3:0.80 / aq-sensitivity=10.00 / aq-factor=1.00:1.00:1.00 / aq2=0 / aq3=0
Language                    : English
Default                     : Yes
Forced                      : No

Audio #1
ID                          : 2
Format                      :
Format/Info                 : Digital Theater Systems
Codec ID                    : A_DTS
Duration                    : 1 h 27 min
Bit rate mode               : Constant
Bit rate                    : 1 509 kb/s
Channel(s)                  : 6 channels
Channel layout              : C L R Ls Rs LFE
Sampling rate               : 48.0 kHz
Frame rate                  : 93.750 FPS (512 SPF)
Bit depth                   : 24 bits
Compression mode            : Lossy
Stream size                 : 943 MiB (14%)
Title                       : Dub, 5.1 1536 kbps
Language                    : Ukrainian
Default                     : Yes
Forced                      : Yes

Audio #2
ID                          : 3
Format                      : AC-3
Format/Info                 : Audio Coding 3
Commercial name             : Dolby Digital
Codec ID                    : A_AC3
Duration                    : 1 h 27 min
Bit rate mode               : Constant
Bit rate                    : 640 kb/s
Channel(s)                  : 6 channels
Channel layout              : L R C LFE Ls Rs
Sampling rate               : 48.0 kHz
Frame rate                  : 31.250 FPS (1536 SPF)
Compression mode            : Lossy
Stream size                 : 400 MiB (6%)
Title                       : Dub , 5.1 640 kbps
Language                    : Ukrainian
Service kind                : Complete Main
Default                     : No
Forced                      : No

Audio #3
ID                          : 4
Format                      : AC-3
Format/Info                 : Audio Coding 3
Commercial name             : Dolby Digital
Codec ID                    : A_AC3
Duration                    : 1 h 27 min
Bit rate mode               : Constant
Bit rate                    : 640 kb/s
Channel(s)                  : 6 channels
Channel layout              : L R C LFE Ls Rs
Sampling rate               : 48.0 kHz
Frame rate                  : 31.250 FPS (1536 SPF)
Compression mode            : Lossy
Stream size                 : 400 MiB (6%)
Title                       : Original
Language                    : English
Service kind                : Complete Main
Default                     : No
Forced                      : No

Text
ID                          : 5
Format                      : UTF-8
Codec ID                    : S_TEXT/UTF8
Codec ID/Info               : UTF-8 Plain Text
Duration                    : 1 h 21 min
Bit rate                    : 41 b/s
Count of elements           : 815
Stream size                 : 24.6 KiB (0%)
Title                       : Full
Language                    : English
Default                     : No
Forced                      : No

Menu
00:00:00.000                : :Chapter 1
00:09:17.265                : :Chapter 2
00:18:36.323                : :Chapter 3
00:28:10.188                : :Chapter 4
00:36:36.194                : :Chapter 5
00:44:25.579                : :Chapter 6
00:54:17.963                : :Chapter 7
01:04:07.593                : :Chapter 8
01:12:42.107                : :Chapter 9
01:22:15.096                : :Chapter 10
Скріншоти


Джерело:


 Трекер:    Зареєстрований   

Завантажити / скачати фільм українською



відео для новачків



 Зареєстрований:   2020-07-07 08:55
 Розмір:   6.44 GB 
 Оцінка фільму:   9.1/10 (Голосів: 12)
   
bot 
робот


З нами з: 30.09.07
Востаннє: 26.05.05
Повідомлень: 25547

2020-07-01 20:03  
Тему перенесено з Анонси релізів до форуму Фільми в HD


staf777

Ваш часовий пояс: GMT + 2 Години

Нова тема   Відповісти