Як Майк / Like Mike (2002) 720p Ukr/Eng | Sub Eng

Нові коментарі

Нова тема   Відповісти
Автор Повідомлення
Anonymous 







2020-07-01 19:27  
Як Майк / Like Mike (2002) 720p Ukr/Eng | Sub Eng

Як Майк / Like Mike (2002) 720p Ukr/Eng | Sub Eng


Жанр: спорт, комедія, сімейний
Країна: США



Кінокомпанія: Twentieth Century-Fox Film Corporation
Режисер: Джон Шульц
Актори: Ліл Боу Уау, Морріс Честнат, Джонатан Ліпніцкі....

Сюжет:
Чотирнадцятирічний Келвін Кембрідж живе в притулку і мріє стати відомим гравцем в баскетбол. Але є одна проблема - Келвін, як то кажуть, не вийшов зростом. Проте хлопчик продовжує сподіватися, що його мрія здійснитися. Одного разу йому до рук потрапляє пара старих кросівок, на якій ще видно ініціали М.j, що майже стерлися. Келвін вирішує, що ці кросівки належали раніше відомому гравцеві і легенді баскетболу Майклу Джордану, а незабаром йому доводиться переконатися, що ця стара пара є по-справжньому чарівною. Одягнувши кросівки на ноги, Кевін може робити величезні тридцятифутові стрибки. Звичайно, така фантастична здатність дозволяє хлопчикові нарешті здійснити свою мрію і стати популярним баскетболістом, що збирає стадіони здивованих, захоплених глядачів...


Тривалість: 01:40:01
Якість: 720p
Відео:
кодек:
розмір кадру: 1278х720
бітрейт: 3838 кб/с

Аудіо # 1:
мова: українська
переклад: багатоголосий закадровий
кодек: 2.0
бітрейт: 192 кб/с

Аудіо # 2:
мова: англійська
переклад: оригінал
кодек: 5.1
бітрейт: 384 кб/с

Субтитри:
мова: англійська
тип: програмні (м'які)
формат: *.srt
Info
General
Unique ID : 186805453108641363590288546962428982223 (0x8C896BED6E9BD9DBBB82A9D4B2F0F3CF)
Complete name : E:\Toloka\2020\Like Mike 2002 720p.
Format :
Format version : Version 4
File size : 3.15 GiB
Duration : 1 h 40 min
Overall bit rate : 4 503 kb/s
Movie name : Like Mike (2002)
Encoded date : UTC 2020-07-01 15:07:33
Writing application : v6.1.0 ('Old Devil') built on Mar 4 2013 09:10:42
Writing library : libebml v1.3.0 + v1.4.0

Video
ID : 1
Format : AVC
Format/Info : Advanced Video Codec
Format profile : [email protected]
Format settings : 2 Ref Frames
Format settings, CABAC : No
Format settings, Reference : 2 frames
Codec ID : V_MPEG4/ISO/AVC
Duration : 1 h 40 min
Bit rate : 3 838 kb/s
Width : 1 278 pixels
Height : 720 pixels
Display aspect ratio : 16:9
Frame rate mode : Constant
Frame rate : 23.976 FPS
Color space : YUV
Chroma subsampling : 4:2:0
Bit depth : 8 bits
Scan type : Progressive
Bits/(Pixel*Frame) : 0.174
Stream size : 2.68 GiB (85%)
Language : English
Default : Yes
Forced : No
Color range : Limited
Color primaries : BT.709
Transfer characteristics : BT.709
Matrix coefficients : BT.709
Duration_Source : General_Duration

Audio #1
ID : 2
Format : AC-3
Format/Info : Audio Coding 3
Commercial name : Dolby Digital
Codec ID : A_AC3
Duration : 1 h 40 min
Bit rate mode : Constant
Bit rate : 192 kb/s
Channel(s) : 2 channels
Channel layout : L R
Sampling rate : 48.0 kHz
Frame rate : 31.250 FPS (1536 SPF)
Compression mode : Lossy
Stream size : 137 MiB (4%)
Title : UKR
Language : Ukrainian
Service kind : Complete Main
Default : Yes
Forced : Yes
Duration_Source : General_Duration

Audio #2
ID : 3
Format : AC-3
Format/Info : Audio Coding 3
Commercial name : Dolby Digital
Codec ID : A_AC3
Duration : 1 h 40 min
Bit rate mode : Constant
Bit rate : 384 kb/s
Channel(s) : 6 channels
Channel layout : L R C LFE Ls Rs
Sampling rate : 48.0 kHz
Frame rate : 31.250 FPS (1536 SPF)
Compression mode : Lossy
Stream size : 275 MiB (9%)
Title : ENG
Language : English
Service kind : Complete Main
Default : No
Forced : No
Duration_Source : General_Duration

Text
ID : 4
Format : UTF-8
Codec ID : S_TEXT/UTF8
Codec ID/Info : UTF-8 Plain Text
Title : ENG
Language : English
Default : No
Forced : No
Скріншоти








За українську доріжку подяка п.: ua2004, Skiff
Особиста подяка пану denixx за надану матеріальну допомогу на підтримку цього і майбутніх релізів.
Джерело:


Срібний реліз (на рейтинг впливає 50% завантаженого)
 Трекер:    Зареєстрований   

Завантажити / скачати фільм українською



відео для новачків



 Зареєстрований:   2020-07-01 19:27
 Розмір:   3.15 GB 
 Оцінка фільму:   10/10 (Голосів: 3)
   
Інші релізи
   Як Майк / Like Mike (2002) Ukr/Eng Skiff  5 / 0   835 MB   2008-12-07 02:07 
Ваш часовий пояс: GMT + 2 Години

Нова тема   Відповісти