Операція «Колібрі» / The Hummingbird Project (2018) Remux 1080p Ukr/Eng | Sub Eng

Нові коментарі

Нова тема   Відповісти
Автор Повідомлення
Anonymous 







2020-07-01 15:12  
Операція «Колібрі» / The Hummingbird Project (2018) Remux 1080p Ukr/Eng | Sub Eng

Операція «Колібрі» / The Hummingbird Project (2018) Remux 1080p Ukr/Eng | Sub Eng
Решта українських офіційних постерів:







Жанр: драма, трилер
Країна: Канада, Бельгія





Кінокомпанія: Item 7, Belga Productions
Режисер: Кім Нґуйєн / Kim Nguyen
Актори: Джессі Айзенберґ / Jesse Eisenberg, Александер Скарґард / Alexander Skarsgård, Сальма Гаєк / Salma Hayek, Майкл Мендо / Michael Mando, Йоган Гелденберґ / Johan Heldenbergh, Аїша Ісса / Ayisha Issa, Сара Ґолдберг / Sarah Goldberg, Френк Скорпіон / Frank Schorpion, Конрад Пла / Conrad Pla та інші.

Сюжет:
Двоюрідні брати Антон і Вінсент давно мріяли втілити в життя один неймовірно амбітний проект. Це їм буде коштувати маси зусиль і грошей, але якщо все вийде, хлопці за лічені секунди будуть заробляти мільйони доларів. Антон і Вінсент працюють трейдерами, та ще й на найвищому рівні, де кожна мілісекунда має величезне значення. Їх проект полягає в тому, що вони прокладуть кабель прямо під Нью-Йоркську фондову біржу — і це дасть їм можливість швидше за всіх заробляти гроші. План ідеальний, потрібно тільки домовитися з усіма власниками земель і прокласти канал. Та ось у них є конкурент — їхня колишня начальниця Єва Торрес, яка теж хоче бути швидше за всіх. У цій гонці переможе тільки хтось один, але приз вартий будь-яких вкладень.


Тривалість: 01:50:37
Якість: Blu-Ray Remux 1080p

Відео:
кодек:
розмір кадру: 1920 x 1080
бітрейт: 21900 кб/с

Аудіо # 1:
мова: українська
переклад: багатоголосий закадровий
кодек: 2.0 (стерео)
бітрейт: 192 кб/с

Аудіо # 2:
мова: англійська
переклад: оригінал
кодек: 5.1
бітрейт: 448 кб/с

Аудіо # 3:
мова: англійська
переклад: оригінал
кодек: -HD Master 5.1
бітрейт: 1882 кб/с

Субтитри (Full) :
мова: англійська
тип: програмні (м'які)
формат: *.srt
Info
Код:
General
Complete name                            : The Hummingbird Project (2018) Remux 1080p [ukr, eng] [Video_Hurtom].
Format                                   :
Format version                           : Version 4
File size                                : 18.9 GiB
Duration                                 : 1 h 50 min
Overall bit rate mode                    : Variable
Overall bit rate                         : 24.4 Mb/s
Movie name                               : Операція «Колібрі» / The Hummingbird Project (2018)
Encoded date                             : UTC 2020-07-01 11:52:10
Writing application                      : v30.1.0 ('Forever And More') 64-bit
Writing library                          : libebml v1.3.6 + v1.4.9
Cover                                    : Yes
Attachments                              : cover.jpg

Video
ID                                       : 1
Format                                   : AVC
Format/Info                              : Advanced Video Codec
Format profile                           : [email protected]
Format settings                          : CABAC / 4 Ref Frames
Format settings, CABAC                   : Yes
Format settings, RefFrames               : 4 frames
Codec ID                                 : V_MPEG4/ISO/AVC
Duration                                 : 1 h 50 min
Bit rate mode                            : Variable
Bit rate                                 : 21.9 Mb/s
Maximum bit rate                         : 35.0 Mb/s
Width                                    : 1 920 pixels
Height                                   : 1 080 pixels
Display aspect ratio                     : 16:9
Frame rate mode                          : Constant
Frame rate                               : 23.976 (24000/1001) FPS
Color space                              : YUV
Chroma subsampling                       : 4:2:0
Bit depth                                : 8 bits
Scan type                                : Progressive
Bits/(Pixel*Frame)                       : 0.440
Stream size                              : 16.9 GiB (90%)
Language                                 : English
Default                                  : Yes
Forced                                   : No

Audio #1
ID                                       : 2
Format                                   : AC-3
Format/Info                              : Audio Coding 3
Commercial name                          : Dolby Digital
Codec ID                                 : A_AC3
Duration                                 : 1 h 50 min
Bit rate mode                            : Constant
Bit rate                                 : 192 kb/s
Channel(s)                               : 2 channels
Channel layout                           : L R
Sampling rate                            : 48.0 kHz
Frame rate                               : 31.250 FPS (1536 SPF)
Bit depth                                : 16 bits
Compression mode                         : Lossy
Stream size                              : 152 MiB (1%)
Title                                    : 2.0 | 192
Language                                 : Ukrainian
Service kind                             : Complete Main
Default                                  : Yes
Forced                                   : No

Audio #2
ID                                       : 3
Format                                   : AC-3
Format/Info                              : Audio Coding 3
Commercial name                          : Dolby Digital
Codec ID                                 : A_AC3
Duration                                 : 1 h 50 min
Bit rate mode                            : Constant
Bit rate                                 : 448 kb/s
Channel(s)                               : 6 channels
Channel layout                           : L R C LFE Ls Rs
Sampling rate                            : 48.0 kHz
Frame rate                               : 31.250 FPS (1536 SPF)
Bit depth                                : 16 bits
Compression mode                         : Lossy
Stream size                              : 354 MiB (2%)
Title                                    : 5.1 | 448
Language                                 : English
Service kind                             : Complete Main
Default                                  : No
Forced                                   : No

Audio #3
ID                                       : 4
Format                                   : XLL
Format/Info                              : Digital Theater Systems
Commercial name                          : -HD Master Audio
Codec ID                                 : A_DTS
Duration                                 : 1 h 50 min
Bit rate mode                            : Variable
Bit rate                                 : 1 882 kb/s
Channel(s)                               : 6 channels
Channel layout                           : C L R Ls Rs LFE
Sampling rate                            : 48.0 kHz
Frame rate                               : 93.750 FPS (512 SPF)
Bit depth                                : 24 bits
Compression mode                         : Lossless
Stream size                              : 1.45 GiB (8%)
Title                                    : -HD MA 5.1 | 1882
Language                                 : English
Default                                  : No
Forced                                   : No

Text
ID                                       : 5
Format                                   : UTF-8
Codec ID                                 : S_TEXT/UTF8
Codec ID/Info                            : UTF-8 Plain Text
Duration                                 : 1 h 45 min
Bit rate                                 : 83 b/s
Count of elements                        : 2019
Stream size                              : 64.0 KiB (0%)
Title                                    : Full
Language                                 : English
Default                                  : No
Forced                                   : No

Menu
00:00:00.000                             : en:Chapter 01
00:09:59.265                             : en:Chapter 02
00:20:45.703                             : en:Chapter 03
00:30:31.329                             : en:Chapter 04
00:40:32.555                             : en:Chapter 05
00:50:20.684                             : en:Chapter 06
01:00:52.357                             : en:Chapter 07
01:10:05.326                             : en:Chapter 08
01:19:56.333                             : en:Chapter 09
01:29:57.892                             : en:Chapter 10
01:39:37.555                             : en:Chapter 11
Скріншоти


Джерело:
Особиста оцінка: 8 - мені сподобалося


Золотий реліз (завантажене не впливає на рейтинг)
 Трекер:    Зареєстрований   

Завантажити / скачати фільм українською



відео для новачків



 Зареєстрований:   2020-07-01 15:12
 Розмір:   18.87 GB 
 Оцінка фільму:   9.6/10 (Голосів: 5)
   
patlatyj1000 
Новенький


З нами з: 13.12.12
Востаннє: 21.09.20
Повідомлень: 14

2020-07-05 17:17  
Поважаю Вашу роботу, але з описом чергова біда.(((((
Ваш часовий пояс: GMT + 2 Години

Нова тема   Відповісти